<?xml version="1.0" standalone="no"?>
<!DOCTYPE svg PUBLIC "-//W3C//DTD SVG 1.1//EN" "http://www.w3.org/Graphics/SVG/1.1/DTD/svg11.dtd" >
<svg xmlns="http://www.w3.org/2000/svg" xmlns:xlink="http://www.w3.org/1999/xlink" version="1.1">
<metadata>
Created by FontForge 20160405 at Mon Mar 25 08:57:12 2019
 By www-data
Copyright 2014 The Heebo Project Authors.
</metadata>
<defs>
<font id="Heebo-Bold" horiz-adv-x="764" >
  <font-face 
    font-family="Heebo"
    font-weight="700"
    font-stretch="normal"
    units-per-em="2048"
    panose-1="0 0 8 0 0 0 0 0 0 0"
    ascent="1638"
    descent="-410"
    x-height="1082"
    cap-height="1456"
    bbox="-1010 -803 1887 2146"
    underline-thickness="100"
    underline-position="-150"
    stemh="234"
    stemv="296"
    unicode-range="U+0020-FB4F"
  />
<missing-glyph horiz-adv-x="1351" 
d="M1107 2146v-2701h-856v2701h856zM899 1965h-445v-89h175v-100h-178v-89h448v89h-178v100h178v89zM721 1617h-270v-281h448v92h-178v189zM629 1525v-97h-89v97h89zM899 1263h-448v-89h178v-100h-178v-89h270v189h178v89zM899 1101h-89v-179h-359v-91h448v270zM899 771
h-270v-151h92v62h89v-127h-270v216h-89v-305h448v305zM899 304h-448v-305h448v305zM810 215v-127h-270v127h270zM899 -63h-448v-90h189l-189 -126v-90h448v90h-275l189 126h86v90z" />
    <glyph glyph-name=".notdef" horiz-adv-x="1351" 
d="M1107 2146v-2701h-856v2701h856zM899 1965h-445v-89h175v-100h-178v-89h448v89h-178v100h178v89zM721 1617h-270v-281h448v92h-178v189zM629 1525v-97h-89v97h89zM899 1263h-448v-89h178v-100h-178v-89h270v189h178v89zM899 1101h-89v-179h-359v-91h448v270zM899 771
h-270v-151h92v62h89v-127h-270v216h-89v-305h448v305zM899 304h-448v-305h448v305zM810 215v-127h-270v127h270zM899 -63h-448v-90h189l-189 -126v-90h448v90h-275l189 126h86v90z" />
    <glyph glyph-name="A" unicode="A" horiz-adv-x="1383" 
d="M1045 0l-95 289h-516l-95 -289h-334l540 1456h292l543 -1456h-335zM517 543h349l-174 530z" />
    <glyph glyph-name="Aacute" unicode="&#xc1;" horiz-adv-x="1383" 
d="M1067 1846l-278 -311h-245l197 311h326zM1045 0l-95 289h-516l-95 -289h-334l540 1456h292l543 -1456h-335zM517 543h349l-174 530z" />
    <glyph glyph-name="Acircumflex" unicode="&#xc2;" horiz-adv-x="1383" 
d="M694 1695l-155 -141h-235v16l303 276h174l307 -280v-12h-238zM1045 0l-95 289h-516l-95 -289h-334l540 1456h292l543 -1456h-335zM517 543h349l-174 530z" />
    <glyph glyph-name="Adieresis" unicode="&#xc4;" horiz-adv-x="1383" 
d="M445 1546c-81 0 -141 57 -141 129c0 73 60 130 141 130s142 -57 142 -130c0 -72 -61 -129 -142 -129zM941 1546c-81 0 -142 56 -142 129s61 129 142 129s142 -56 142 -129s-61 -129 -142 -129zM1045 0l-95 289h-516l-95 -289h-334l540 1456h292l543 -1456h-335zM517 543
h349l-174 530z" />
    <glyph glyph-name="Agrave" unicode="&#xc0;" horiz-adv-x="1383" 
d="M861 1535h-247l-277 311h326zM1045 0l-95 289h-516l-95 -289h-334l540 1456h292l543 -1456h-335zM517 543h349l-174 530z" />
    <glyph glyph-name="Aring" unicode="&#xc5;" horiz-adv-x="1383" 
d="M696 1529c-129 0 -223 89 -223 201c0 111 94 204 223 204s223 -93 223 -204c0 -112 -94 -201 -223 -201zM696 1838c-66 0 -107 -50 -107 -108s41 -106 107 -106c65 0 107 47 107 106c0 58 -42 108 -107 108zM1045 0l-95 289h-516l-95 -289h-334l540 1456h292l543 -1456
h-335zM517 543h349l-174 530z" />
    <glyph glyph-name="Atilde" unicode="&#xc3;" horiz-adv-x="1383" 
d="M569 1650c-46 0 -82 -32 -82 -93l-173 9c0 143 95 270 228 270c106 0 176 -85 275 -85c46 0 84 32 84 94l172 -12c0 -146 -96 -268 -229 -268c-126 0 -171 85 -275 85zM1045 0l-95 289h-516l-95 -289h-334l540 1456h292l543 -1456h-335zM517 543h349l-174 530z" />
    <glyph glyph-name="AE" unicode="&#xc6;" horiz-adv-x="1926" 
d="M1257 247h605v-247h-897l-14 332h-429l-163 -332h-353l773 1456h1022v-247h-585l15 -339h489v-247h-479zM648 588h292l-23 546z" />
    <glyph glyph-name="B" unicode="B" horiz-adv-x="1311" 
d="M980 748c171 -43 239 -180 239 -318c0 -284 -188 -430 -531 -430h-563v1456h514c343 0 548 -128 548 -400c0 -132 -62 -252 -207 -308zM639 1202h-200v-354h200c161 0 234 60 234 173c0 129 -71 181 -234 181zM688 253c151 0 218 78 218 180c0 121 -58 196 -205 196h-262
v-376h249z" />
    <glyph glyph-name="C" unicode="C" horiz-adv-x="1342" 
d="M1278 488c-19 -299 -232 -508 -590 -508c-378 0 -606 270 -606 703v89c0 433 239 705 607 705s563 -219 590 -518h-313c-11 169 -82 261 -277 261c-194 0 -289 -137 -289 -446v-91c0 -304 80 -446 288 -446c181 0 265 82 277 251h313z" />
    <glyph glyph-name="Ccedilla" unicode="&#xc7;" horiz-adv-x="1342" 
d="M688 237c181 0 265 82 277 251h313c-17 -267 -188 -462 -478 -501l-8 -40c74 -13 150 -58 150 -173c0 -145 -122 -242 -356 -242l-7 174c62 0 107 23 107 80c0 53 -42 69 -141 76l27 127c-308 50 -490 307 -490 694v89c0 433 239 705 607 705s563 -219 590 -518h-313
c-11 169 -82 261 -277 261c-194 0 -289 -137 -289 -446v-91c0 -304 80 -446 288 -446z" />
    <glyph glyph-name="D" unicode="D" horiz-adv-x="1330" 
d="M579 1456c393 0 668 -282 668 -696v-64c0 -415 -275 -696 -670 -696h-452v1456h454zM928 696v66c0 288 -122 440 -349 440h-140v-949h138c229 0 351 156 351 443z" />
    <glyph glyph-name="Eth" unicode="&#xd0;" horiz-adv-x="1330" 
d="M579 1456c393 0 668 -282 668 -696v-64c0 -415 -275 -696 -670 -696h-452v639h-147v186h147v631h454zM928 696v66c0 288 -122 440 -349 440h-140v-377h247v-186h-247v-386h138c229 0 351 156 351 443z" />
    <glyph glyph-name="E" unicode="E" horiz-adv-x="1151" 
d="M439 253h669v-253h-983v1456h982v-254h-668v-331h569v-245h-569v-373z" />
    <glyph glyph-name="Eacute" unicode="&#xc9;" horiz-adv-x="1151" 
d="M1010 1848l-278 -311h-245l197 311h326zM439 253h669v-253h-983v1456h982v-254h-668v-331h569v-245h-569v-373z" />
    <glyph glyph-name="Ecircumflex" unicode="&#xca;" horiz-adv-x="1151" 
d="M637 1697l-155 -141h-235v16l303 276h174l307 -280v-12h-238zM439 253h669v-253h-983v1456h982v-254h-668v-331h569v-245h-569v-373z" />
    <glyph glyph-name="Edieresis" unicode="&#xcb;" horiz-adv-x="1151" 
d="M388 1548c-81 0 -141 57 -141 129c0 73 60 130 141 130s142 -57 142 -130c0 -72 -61 -129 -142 -129zM884 1548c-81 0 -142 56 -142 129s61 129 142 129s142 -56 142 -129s-61 -129 -142 -129zM439 253h669v-253h-983v1456h982v-254h-668v-331h569v-245h-569v-373z" />
    <glyph glyph-name="Egrave" unicode="&#xc8;" horiz-adv-x="1151" 
d="M804 1537h-247l-277 311h326zM439 253h669v-253h-983v1456h982v-254h-668v-331h569v-245h-569v-373z" />
    <glyph glyph-name="F" unicode="F" horiz-adv-x="1122" 
d="M1081 1202h-642v-360h573v-252h-573v-590h-314v1456h956v-254z" />
    <glyph glyph-name="G" unicode="G" horiz-adv-x="1396" 
d="M1288 183c-70 -82 -244 -203 -563 -203c-379 0 -634 254 -634 705v85c0 451 247 707 614 707c384 0 551 -202 582 -488h-304c-22 145 -93 235 -269 235c-195 0 -305 -153 -305 -452v-87c0 -298 113 -452 335 -452c135 0 199 38 230 68v241h-265v228h579v-587z" />
    <glyph glyph-name="H" unicode="H" horiz-adv-x="1446" 
d="M1006 1456h313v-1456h-313v618h-567v-618h-314v1456h314v-585h567v585z" />
    <glyph glyph-name="I" unicode="I" horiz-adv-x="603" 
d="M458 0h-313v1456h313v-1456z" />
    <glyph glyph-name="Iacute" unicode="&#xcd;" horiz-adv-x="603" 
d="M348 1848h326l-278 -311h-245zM458 0h-313v1456h313v-1456z" />
    <glyph glyph-name="Icircumflex" unicode="&#xce;" horiz-adv-x="603" 
d="M695 1568v-12h-238l-156 141l-155 -141h-235v16l303 276h174zM458 0h-313v1456h313v-1456z" />
    <glyph glyph-name="Idieresis" unicode="&#xcf;" horiz-adv-x="603" 
d="M52 1807c81 0 142 -57 142 -130c0 -72 -61 -129 -142 -129s-141 57 -141 129c0 73 60 130 141 130zM548 1806c81 0 142 -56 142 -129s-61 -129 -142 -129s-142 56 -142 129s61 129 142 129zM458 0h-313v1456h313v-1456z" />
    <glyph glyph-name="Igrave" unicode="&#xcc;" horiz-adv-x="603" 
d="M468 1537h-247l-277 311h326zM458 0h-313v1456h313v-1456z" />
    <glyph glyph-name="J" unicode="J" horiz-adv-x="1146" 
d="M711 1456h313v-1004c0 -292 -213 -472 -492 -472c-286 0 -492 143 -492 454h315c0 -153 67 -201 177 -201s179 80 179 219v1004z" />
    <glyph glyph-name="K" unicode="K" horiz-adv-x="1303" 
d="M949 0l-357 572l-153 -165v-407h-314v1456h314v-652l129 182l356 470h386l-509 -646l520 -810h-372z" />
    <glyph glyph-name="L" unicode="L" horiz-adv-x="1110" 
d="M439 253h630v-253h-944v1456h314v-1203z" />
    <glyph glyph-name="M" unicode="M" horiz-adv-x="1795" 
d="M1668 1456v-1456h-315v376l31 695l-382 -1071h-213l-381 1071l31 -695v-376h-314v1456h411l360 -1039l360 1039h412z" />
    <glyph glyph-name="N" unicode="N" horiz-adv-x="1445" 
d="M1318 0h-313l-566 939v-939h-314v1456h314l566 -939v939h313v-1456z" />
    <glyph glyph-name="Ntilde" unicode="&#xd1;" horiz-adv-x="1445" 
d="M1105 1833c0 -146 -96 -268 -229 -268c-126 0 -171 85 -275 85c-46 0 -82 -32 -82 -93l-173 9c0 143 95 270 228 270c106 0 176 -85 275 -85c46 0 84 32 84 94zM1318 0h-313l-566 939v-939h-314v1456h314l566 -939v939h313v-1456z" />
    <glyph glyph-name="O" unicode="O" horiz-adv-x="1414" 
d="M1331 696c0 -444 -255 -716 -623 -716s-626 272 -626 716v63c0 444 256 717 624 717s625 -273 625 -717v-63zM1013 761c0 298 -112 457 -307 457c-197 0 -306 -159 -306 -457v-65c0 -295 111 -459 308 -459c196 0 305 164 305 459v65z" />
    <glyph glyph-name="Oacute" unicode="&#xd3;" horiz-adv-x="1414" 
d="M753 1846h326l-278 -311h-245zM1331 696c0 -444 -255 -716 -623 -716s-626 272 -626 716v63c0 444 256 717 624 717s625 -273 625 -717v-63zM1013 761c0 298 -112 457 -307 457c-197 0 -306 -159 -306 -457v-65c0 -295 111 -459 308 -459c196 0 305 164 305 459v65z" />
    <glyph glyph-name="Ocircumflex" unicode="&#xd4;" horiz-adv-x="1414" 
d="M1100 1566v-12h-238l-156 141l-155 -141h-235v16l303 276h174zM1331 696c0 -444 -255 -716 -623 -716s-626 272 -626 716v63c0 444 256 717 624 717s625 -273 625 -717v-63zM1013 761c0 298 -112 457 -307 457c-197 0 -306 -159 -306 -457v-65c0 -295 111 -459 308 -459
c196 0 305 164 305 459v65z" />
    <glyph glyph-name="Odieresis" unicode="&#xd6;" horiz-adv-x="1414" 
d="M457 1805c81 0 142 -57 142 -130c0 -72 -61 -129 -142 -129s-141 57 -141 129c0 73 60 130 141 130zM953 1804c81 0 142 -56 142 -129s-61 -129 -142 -129s-142 56 -142 129s61 129 142 129zM1331 696c0 -444 -255 -716 -623 -716s-626 272 -626 716v63
c0 444 256 717 624 717s625 -273 625 -717v-63zM1013 761c0 298 -112 457 -307 457c-197 0 -306 -159 -306 -457v-65c0 -295 111 -459 308 -459c196 0 305 164 305 459v65z" />
    <glyph glyph-name="Ograve" unicode="&#xd2;" horiz-adv-x="1414" 
d="M873 1535h-247l-277 311h326zM1331 696c0 -444 -255 -716 -623 -716s-626 272 -626 716v63c0 444 256 717 624 717s625 -273 625 -717v-63zM1013 761c0 298 -112 457 -307 457c-197 0 -306 -159 -306 -457v-65c0 -295 111 -459 308 -459c196 0 305 164 305 459v65z" />
    <glyph glyph-name="Oslash" unicode="&#xd8;" horiz-adv-x="1411" 
d="M1154 1295c117 -124 185 -307 185 -536v-63c0 -444 -255 -716 -623 -716c-109 0 -208 24 -294 69l-84 -144h-192l142 242c-124 124 -198 312 -198 549v63c0 444 256 717 624 717c115 0 219 -27 308 -77l70 119h193zM408 696c0 -108 15 -199 44 -270l432 737
c-46 36 -103 55 -170 55c-197 0 -306 -159 -306 -457v-65zM1021 696v65c0 98 -12 180 -35 248l-426 -727c43 -30 96 -45 156 -45c196 0 305 164 305 459z" />
    <glyph glyph-name="Otilde" unicode="&#xd5;" horiz-adv-x="1414" 
d="M1085 1833c0 -146 -96 -268 -229 -268c-126 0 -171 85 -275 85c-46 0 -82 -32 -82 -93l-173 9c0 143 95 270 228 270c106 0 176 -85 275 -85c46 0 84 32 84 94zM1331 696c0 -444 -255 -716 -623 -716s-626 272 -626 716v63c0 444 256 717 624 717s625 -273 625 -717v-63z
M1013 761c0 298 -112 457 -307 457c-197 0 -306 -159 -306 -457v-65c0 -295 111 -459 308 -459c196 0 305 164 305 459v65z" />
    <glyph glyph-name="OE" unicode="&#x152;" horiz-adv-x="1986" 
d="M1218 253h669v-253h-891c-89 -10 -187 -20 -288 -20c-363 0 -612 243 -612 596v304c0 353 247 596 610 596c101 0 201 -9 290 -20h890v-254h-668v-331h569v-245h-569v-373zM397 576c0 -235 121 -353 311 -353c68 0 134 5 196 13v984c-62 8 -129 13 -198 13
c-190 0 -309 -116 -309 -351v-306z" />
    <glyph glyph-name="P" unicode="P" horiz-adv-x="1325" 
d="M697 1456c345 0 552 -205 552 -486c0 -282 -207 -464 -552 -464h-258v-506h-314v1456h572zM697 760c166 0 235 87 235 208c0 123 -69 234 -235 234h-258v-442h258z" />
    <glyph glyph-name="Thorn" unicode="&#xde;" horiz-adv-x="1252" 
d="M648 1193c351 0 542 -190 542 -455c0 -264 -191 -454 -542 -454h-217v-284h-302v1456h302v-263h217zM648 527c172 0 240 100 240 209c0 111 -68 213 -240 213h-217v-422h217z" />
    <glyph glyph-name="Q" unicode="Q" horiz-adv-x="1414" 
d="M1330 696c0 -268 -93 -474 -248 -595l238 -189l-197 -175l-310 251c-34 -5 -70 -8 -106 -8c-367 0 -626 272 -626 716v63c0 444 257 717 624 717c368 0 625 -273 625 -717v-63zM399 696c0 -295 111 -459 308 -459c196 0 306 164 306 459v65c0 298 -112 457 -308 457
c-197 0 -306 -159 -306 -457v-65z" />
    <glyph glyph-name="R" unicode="R" horiz-adv-x="1315" 
d="M959 608l311 -593v-15h-336l-267 526h-228v-526h-314v1456h550c336 0 542 -153 542 -440c0 -215 -100 -337 -258 -408zM439 1202v-422h236c152 0 228 82 228 210c0 131 -75 212 -228 212h-236z" />
    <glyph glyph-name="S" unicode="S" horiz-adv-x="1265" 
d="M602 607c-264 85 -489 206 -489 462c0 246 226 407 543 407c322 0 537 -183 537 -450h-313c0 118 -74 201 -230 201c-150 0 -224 -72 -224 -160c0 -93 101 -149 283 -205c316 -97 484 -234 484 -476c0 -258 -208 -406 -530 -406c-292 0 -595 149 -595 484h315
c0 -174 110 -236 280 -236c149 0 216 68 216 156c0 98 -46 149 -277 223z" />
    <glyph glyph-name="uni1E9E" unicode="&#x1e9e;" horiz-adv-x="1399" 
d="M915 849c254 -37 397 -184 397 -428c0 -294 -224 -442 -499 -442c-148 0 -254 26 -337 60l86 230c43 -18 123 -47 214 -47c148 0 235 76 235 198c0 177 -96 237 -276 237h-134v189l263 297c-69 51 -149 91 -263 91c-132 0 -212 -79 -212 -278v-956h-302v958
c1 343 170 519 514 519c247 0 439 -97 638 -252z" />
    <glyph glyph-name="T" unicode="T" horiz-adv-x="1274" 
d="M1234 1456v-254h-444v-1202h-313v1202h-437v254h1194z" />
    <glyph glyph-name="U" unicode="U" horiz-adv-x="1352" 
d="M1238 1456v-957c0 -338 -233 -519 -561 -519c-331 0 -564 181 -564 519v957h315v-957c0 -187 92 -266 249 -266s247 79 247 266v957h314z" />
    <glyph glyph-name="Uacute" unicode="&#xda;" horiz-adv-x="1352" 
d="M719 1846h326l-278 -311h-245zM1238 1456v-957c0 -338 -233 -519 -561 -519c-331 0 -564 181 -564 519v957h315v-957c0 -187 92 -266 249 -266s247 79 247 266v957h314z" />
    <glyph glyph-name="Ucircumflex" unicode="&#xdb;" horiz-adv-x="1352" 
d="M1066 1566v-12h-238l-156 141l-155 -141h-235v16l303 276h174zM1238 1456v-957c0 -338 -233 -519 -561 -519c-331 0 -564 181 -564 519v957h315v-957c0 -187 92 -266 249 -266s247 79 247 266v957h314z" />
    <glyph glyph-name="Udieresis" unicode="&#xdc;" horiz-adv-x="1352" 
d="M423 1805c81 0 142 -57 142 -130c0 -72 -61 -129 -142 -129s-141 57 -141 129c0 73 60 130 141 130zM919 1804c81 0 142 -56 142 -129s-61 -129 -142 -129s-142 56 -142 129s61 129 142 129zM1238 1456v-957c0 -338 -233 -519 -561 -519c-331 0 -564 181 -564 519v957
h315v-957c0 -187 92 -266 249 -266s247 79 247 266v957h314z" />
    <glyph glyph-name="Ugrave" unicode="&#xd9;" horiz-adv-x="1352" 
d="M839 1535h-247l-277 311h326zM1238 1456v-957c0 -338 -233 -519 -561 -519c-331 0 -564 181 -564 519v957h315v-957c0 -187 92 -266 249 -266s247 79 247 266v957h314z" />
    <glyph glyph-name="V" unicode="V" horiz-adv-x="1343" 
d="M990 1456h350l-504 -1456h-331l-500 1456h347l319 -1083z" />
    <glyph glyph-name="W" unicode="W" horiz-adv-x="1789" 
d="M1446 1456h312l-319 -1456h-318l-226 945l-225 -945h-318l-320 1456h312l190 -1012l228 1012h266l230 -1011z" />
    <glyph glyph-name="X" unicode="X" horiz-adv-x="1304" 
d="M652 961l264 495h359l-419 -722l430 -734h-363l-271 504l-271 -504h-363l430 734l-419 722h360z" />
    <glyph glyph-name="Y" unicode="Y" horiz-adv-x="1272" 
d="M636 809l293 647h342l-476 -930v-526h-318v526l-477 930h343z" />
    <glyph glyph-name="Yacute" unicode="&#xdd;" horiz-adv-x="1272" 
d="M684 1846h326l-278 -311h-245zM636 809l293 647h342l-476 -930v-526h-318v526l-477 930h343z" />
    <glyph glyph-name="Z" unicode="Z" horiz-adv-x="1244" 
d="M467 253h720v-253h-1115v180l711 1022h-712v254h1103v-175z" />
    <glyph glyph-name="K.alt" horiz-adv-x="1324" 
d="M968 0l-356 588h-172v-588h-314v1456h314v-575h137l336 575h381l-435 -685l483 -771h-374z" />
    <glyph glyph-name="R.alt" horiz-adv-x="1335" 
d="M1204 252c0 -49 14 -175 75 -223v-29h-323c-61 49 -65 212 -65 254v91c0 140 -66 217 -211 217h-240v-562h-314v1456h582c333 0 511 -156 511 -429c0 -170 -100 -266 -262 -329c187 -53 247 -183 247 -351v-95zM678 815c153 0 228 67 228 186c0 118 -66 201 -217 201
h-249v-387h238z" />
    <glyph glyph-name="K.alt2" horiz-adv-x="1326" 
d="M1312 0h-392l-480 637v-637h-314v1456h314v-637l454 637h388l-541 -722z" />
    <glyph glyph-name="C.ss06" horiz-adv-x="1382" 
d="M1316 488c-29 -324 -236 -509 -595 -509c-380 0 -638 277 -638 726v46c0 448 268 726 637 726s569 -203 599 -518h-314c-22 169 -90 264 -285 264c-194 0 -323 -173 -323 -470v-48c0 -297 117 -473 324 -473c180 0 261 96 282 256h313z" />
    <glyph glyph-name="D.ss06" horiz-adv-x="1389" 
d="M582 1456c436 0 723 -303 723 -707v-43c0 -404 -286 -706 -725 -706h-454v1456h456zM991 706v45c0 253 -125 451 -428 451h-123v-949h122c304 0 429 202 429 453z" />
    <glyph glyph-name="G.ss06" horiz-adv-x="1422" 
d="M1319 182c-67 -82 -245 -203 -542 -203c-403 0 -694 291 -694 718v52c0 440 268 728 645 728c373 0 559 -202 590 -488h-305c-21 145 -110 234 -276 234c-205 0 -340 -185 -340 -472v-54c0 -276 146 -465 380 -465c124 0 199 29 227 58v237h-245v229h560v-574z" />
    <glyph glyph-name="O.ss06" horiz-adv-x="1492" 
d="M1408 707c0 -410 -271 -728 -662 -728c-389 0 -663 318 -663 728v42c0 409 272 728 661 728c391 0 664 -319 664 -728v-42zM1095 751c0 260 -131 472 -351 472s-348 -212 -348 -472v-44c0 -261 130 -475 350 -475s349 214 349 475v44z" />
    <glyph glyph-name="Q.ss06" horiz-adv-x="1492" 
d="M1408 716c0 -254 -94 -465 -251 -595l233 -199l-198 -175l-287 250c-50 -12 -103 -18 -159 -18c-389 0 -663 305 -663 737v23c0 432 272 738 661 738c391 0 664 -306 664 -738v-23zM396 716c0 -283 130 -484 350 -484s349 201 349 484v25c0 285 -131 482 -351 482
s-348 -197 -348 -482v-25z" />
    <glyph glyph-name="a" unicode="a" horiz-adv-x="1096" 
d="M989 267c0 -129 16 -195 44 -250v-17h-303c-13 26 -23 60 -29 97c-57 -65 -142 -117 -271 -117c-205 0 -367 135 -367 325c0 225 167 356 501 356h123v61c0 96 -47 158 -152 158c-91 0 -146 -45 -146 -125h-302c0 193 182 347 464 347c252 0 438 -128 438 -382v-453z
M498 209c93 0 161 48 189 98v181h-115c-147 0 -208 -73 -208 -164c0 -67 52 -115 134 -115z" />
    <glyph glyph-name="aacute" unicode="&#xe1;" horiz-adv-x="1096" 
d="M920 1536l-278 -311h-245l197 311h326zM989 267c0 -129 16 -195 44 -250v-17h-303c-13 26 -23 60 -29 97c-57 -65 -142 -117 -271 -117c-205 0 -367 135 -367 325c0 225 167 356 501 356h123v61c0 96 -47 158 -152 158c-91 0 -146 -45 -146 -125h-302
c0 193 182 347 464 347c252 0 438 -128 438 -382v-453zM498 209c93 0 161 48 189 98v181h-115c-147 0 -208 -73 -208 -164c0 -67 52 -115 134 -115z" />
    <glyph glyph-name="acircumflex" unicode="&#xe2;" horiz-adv-x="1096" 
d="M547 1385l-155 -141h-235v16l303 276h174l307 -280v-12h-238zM989 267c0 -129 16 -195 44 -250v-17h-303c-13 26 -23 60 -29 97c-57 -65 -142 -117 -271 -117c-205 0 -367 135 -367 325c0 225 167 356 501 356h123v61c0 96 -47 158 -152 158c-91 0 -146 -45 -146 -125
h-302c0 193 182 347 464 347c252 0 438 -128 438 -382v-453zM498 209c93 0 161 48 189 98v181h-115c-147 0 -208 -73 -208 -164c0 -67 52 -115 134 -115z" />
    <glyph glyph-name="adieresis" unicode="&#xe4;" horiz-adv-x="1096" 
d="M298 1236c-81 0 -141 57 -141 129c0 73 60 130 141 130s142 -57 142 -130c0 -72 -61 -129 -142 -129zM794 1236c-81 0 -142 56 -142 129s61 129 142 129s142 -56 142 -129s-61 -129 -142 -129zM989 267c0 -129 16 -195 44 -250v-17h-303c-13 26 -23 60 -29 97
c-57 -65 -142 -117 -271 -117c-205 0 -367 135 -367 325c0 225 167 356 501 356h123v61c0 96 -47 158 -152 158c-91 0 -146 -45 -146 -125h-302c0 193 182 347 464 347c252 0 438 -128 438 -382v-453zM498 209c93 0 161 48 189 98v181h-115c-147 0 -208 -73 -208 -164
c0 -67 52 -115 134 -115z" />
    <glyph glyph-name="agrave" unicode="&#xe0;" horiz-adv-x="1096" 
d="M714 1225h-247l-277 311h326zM989 267c0 -129 16 -195 44 -250v-17h-303c-13 26 -23 60 -29 97c-57 -65 -142 -117 -271 -117c-205 0 -367 135 -367 325c0 225 167 356 501 356h123v61c0 96 -47 158 -152 158c-91 0 -146 -45 -146 -125h-302c0 193 182 347 464 347
c252 0 438 -128 438 -382v-453zM498 209c93 0 161 48 189 98v181h-115c-147 0 -208 -73 -208 -164c0 -67 52 -115 134 -115z" />
    <glyph glyph-name="aring" unicode="&#xe5;" horiz-adv-x="1096" 
d="M549 1219c-129 0 -223 89 -223 201c0 111 94 204 223 204s223 -93 223 -204c0 -112 -94 -201 -223 -201zM549 1528c-66 0 -107 -50 -107 -108s41 -106 107 -106c65 0 107 47 107 106c0 58 -42 108 -107 108zM989 267c0 -129 16 -195 44 -250v-17h-303
c-13 26 -23 60 -29 97c-57 -65 -142 -117 -271 -117c-205 0 -367 135 -367 325c0 225 167 356 501 356h123v61c0 96 -47 158 -152 158c-91 0 -146 -45 -146 -125h-302c0 193 182 347 464 347c252 0 438 -128 438 -382v-453zM498 209c93 0 161 48 189 98v181h-115
c-147 0 -208 -73 -208 -164c0 -67 52 -115 134 -115z" />
    <glyph glyph-name="atilde" unicode="&#xe3;" horiz-adv-x="1096" 
d="M422 1340c-46 0 -82 -32 -82 -93l-173 9c0 143 95 270 228 270c106 0 176 -85 275 -85c46 0 84 32 84 94l172 -12c0 -146 -96 -268 -229 -268c-126 0 -171 85 -275 85zM989 267c0 -129 16 -195 44 -250v-17h-303c-13 26 -23 60 -29 97c-57 -65 -142 -117 -271 -117
c-205 0 -367 135 -367 325c0 225 167 356 501 356h123v61c0 96 -47 158 -152 158c-91 0 -146 -45 -146 -125h-302c0 193 182 347 464 347c252 0 438 -128 438 -382v-453zM498 209c93 0 161 48 189 98v181h-115c-147 0 -208 -73 -208 -164c0 -67 52 -115 134 -115z" />
    <glyph glyph-name="ae" unicode="&#xe6;" horiz-adv-x="1730" 
d="M1679 612v-168h-659c14 -128 92 -221 259 -221c137 0 214 35 292 74l78 -196c-72 -58 -222 -121 -404 -121c-167 0 -297 53 -385 144c-73 -76 -200 -144 -389 -144c-262 0 -406 134 -406 341c0 211 173 331 502 331h157v52c0 96 -54 155 -152 155
c-108 0 -170 -52 -170 -116l-301 19c0 197 187 340 474 340c136 0 248 -35 325 -104c82 67 190 105 324 104c285 0 455 -189 455 -490zM1384 645v27c0 113 -51 187 -160 187c-127 0 -186 -87 -202 -214h362zM367 317c0 -71 51 -117 162 -117c68 0 146 34 195 74v183h-155
c-132 0 -202 -67 -202 -140z" />
    <glyph glyph-name="b" unicode="b" horiz-adv-x="1153" 
d="M667 1102c286 0 423 -230 423 -549v-21c0 -325 -137 -552 -421 -552c-122 0 -211 50 -276 135l-14 -115h-271v1536h302v-547c63 71 147 113 257 113zM788 532v21c0 165 -38 305 -197 305c-93 0 -149 -39 -181 -105v-424c32 -67 89 -105 183 -105c159 0 195 128 195 308z
" />
    <glyph glyph-name="c" unicode="c" horiz-adv-x="1068" 
d="M732 379h283c-1 -235 -198 -399 -450 -399c-336 0 -502 239 -502 548v26c0 309 166 548 500 548c267 0 451 -161 452 -427h-283c-1 102 -61 184 -175 184c-160 0 -192 -145 -192 -305v-26c0 -164 30 -305 194 -305c103 0 172 60 173 156z" />
    <glyph glyph-name="ccedilla" unicode="&#xe7;" horiz-adv-x="1068" 
d="M559 223c103 0 172 60 173 156h283c-1 -200 -144 -349 -343 -389l-8 -43c74 -13 150 -58 150 -173c0 -145 -122 -242 -356 -242l-7 174c62 0 107 23 107 80c0 53 -42 69 -141 76l28 129c-256 51 -382 267 -382 537v26c0 309 166 548 500 548c267 0 451 -161 452 -427
h-283c-1 102 -61 184 -175 184c-160 0 -192 -145 -192 -305v-26c0 -164 30 -305 194 -305z" />
    <glyph glyph-name="d" unicode="d" horiz-adv-x="1154" 
d="M743 1536h302v-1536h-272l-14 116c-67 -85 -156 -136 -275 -136c-269 0 -421 233 -421 548v21c0 329 152 553 423 553c108 0 193 -43 257 -117v551zM561 224c89 0 148 41 182 109v417c-34 70 -93 108 -180 108c-145 0 -198 -134 -198 -309v-21c0 -170 50 -304 196 -304z
" />
    <glyph glyph-name="eth" unicode="&#xf0;" horiz-adv-x="1176" 
d="M854 1306c161 -163 257 -386 257 -653v-70c0 -358 -223 -603 -525 -603c-303 0 -507 216 -507 488c0 298 165 496 453 496c91 0 173 -26 240 -71c-35 104 -92 189 -164 257l-187 -118l-78 116l147 93c-80 49 -168 84 -258 107l95 231c157 -32 299 -93 416 -178l169 106
l77 -116zM808 550v105v5c-37 42 -106 77 -209 77c-145 0 -218 -103 -218 -269c0 -137 77 -245 209 -245c144 0 218 140 218 327z" />
    <glyph glyph-name="e" unicode="e" horiz-adv-x="1110" 
d="M1060 571v-128h-683c21 -133 113 -220 255 -220c101 0 194 37 258 118l145 -167c-68 -97 -212 -194 -423 -194c-341 0 -542 237 -542 525v38c0 323 189 559 509 559c311 0 481 -209 481 -531zM764 645v24c-2 112 -60 190 -187 190c-121 0 -179 -88 -198 -214h385z" />
    <glyph glyph-name="eacute" unicode="&#xe9;" horiz-adv-x="1110" 
d="M915 1537l-278 -311h-245l197 311h326zM1060 571v-128h-683c21 -133 113 -220 255 -220c101 0 194 37 258 118l145 -167c-68 -97 -212 -194 -423 -194c-341 0 -542 237 -542 525v38c0 323 189 559 509 559c311 0 481 -209 481 -531zM764 645v24c-2 112 -60 190 -187 190
c-121 0 -179 -88 -198 -214h385z" />
    <glyph glyph-name="ecircumflex" unicode="&#xea;" horiz-adv-x="1110" 
d="M542 1386l-155 -141h-235v16l303 276h174l307 -280v-12h-238zM1060 571v-128h-683c21 -133 113 -220 255 -220c101 0 194 37 258 118l145 -167c-68 -97 -212 -194 -423 -194c-341 0 -542 237 -542 525v38c0 323 189 559 509 559c311 0 481 -209 481 -531zM764 645v24
c-2 112 -60 190 -187 190c-121 0 -179 -88 -198 -214h385z" />
    <glyph glyph-name="edieresis" unicode="&#xeb;" horiz-adv-x="1110" 
d="M293 1237c-81 0 -141 57 -141 129c0 73 60 130 141 130s142 -57 142 -130c0 -72 -61 -129 -142 -129zM789 1237c-81 0 -142 56 -142 129s61 129 142 129s142 -56 142 -129s-61 -129 -142 -129zM1060 571v-128h-683c21 -133 113 -220 255 -220c101 0 194 37 258 118
l145 -167c-68 -97 -212 -194 -423 -194c-341 0 -542 237 -542 525v38c0 323 189 559 509 559c311 0 481 -209 481 -531zM764 645v24c-2 112 -60 190 -187 190c-121 0 -179 -88 -198 -214h385z" />
    <glyph glyph-name="egrave" unicode="&#xe8;" horiz-adv-x="1110" 
d="M709 1226h-247l-277 311h326zM1060 571v-128h-683c21 -133 113 -220 255 -220c101 0 194 37 258 118l145 -167c-68 -97 -212 -194 -423 -194c-341 0 -542 237 -542 525v38c0 323 189 559 509 559c311 0 481 -209 481 -531zM764 645v24c-2 112 -60 190 -187 190
c-121 0 -179 -88 -198 -214h385z" />
    <glyph glyph-name="f" unicode="f" horiz-adv-x="737" 
d="M648 1313c-103 0 -161 -50 -161 -139v-92h214v-220h-214v-862h-302v862h-160v220h160v92c0 248 155 383 401 383c54 0 104 -8 151 -20l-2 -233c-24 6 -52 9 -87 9z" />
    <glyph glyph-name="g" unicode="g" horiz-adv-x="1172" 
d="M791 1082h274v-1043c0 -298 -214 -465 -529 -465c-135 0 -311 54 -402 166l131 185c64 -70 152 -117 259 -117c151 0 238 84 238 231v54c-63 -71 -147 -113 -258 -113c-270 0 -438 233 -438 548v21c0 329 167 553 440 553c125 0 212 -44 274 -120zM580 224
c88 0 147 34 182 93v449c-35 59 -93 92 -180 92c-144 0 -215 -134 -215 -309v-21c0 -170 67 -304 213 -304z" />
    <glyph glyph-name="h" unicode="h" horiz-adv-x="1149" 
d="M687 1102c214 0 359 -115 359 -424v-678h-302v680c0 137 -61 178 -168 178c-86 0 -141 -33 -174 -88v-770h-302v1536h302v-570c70 86 168 136 285 136z" />
    <glyph glyph-name="i" unicode="i" horiz-adv-x="549" 
d="M273 1517c102 0 169 -65 169 -155s-67 -155 -169 -155c-101 0 -168 65 -168 155s67 155 168 155zM426 0h-303v1082h303v-1082z" />
    <glyph glyph-name="dotlessi" unicode="&#x131;" horiz-adv-x="567" 
d="M434 0h-303v1082h303v-1082z" />
    <glyph glyph-name="iacute" unicode="&#xed;" horiz-adv-x="567" 
d="M331 1519h326l-278 -311h-245zM434 0h-303v1082h303v-1082z" />
    <glyph glyph-name="icircumflex" unicode="&#xee;" horiz-adv-x="567" 
d="M678 1239v-12h-238l-156 141l-155 -141h-235v16l303 276h174zM434 0h-303v1082h303v-1082z" />
    <glyph glyph-name="idieresis" unicode="&#xef;" horiz-adv-x="567" 
d="M35 1478c81 0 142 -57 142 -130c0 -72 -61 -129 -142 -129s-141 57 -141 129c0 73 60 130 141 130zM531 1477c81 0 142 -56 142 -129s-61 -129 -142 -129s-142 56 -142 129s61 129 142 129zM434 0h-303v1082h303v-1082z" />
    <glyph glyph-name="igrave" unicode="&#xec;" horiz-adv-x="567" 
d="M451 1208h-247l-277 311h326zM434 0h-303v1082h303v-1082z" />
    <glyph glyph-name="j" unicode="j" horiz-adv-x="538" 
d="M271 1517c101 0 168 -65 168 -155s-67 -155 -168 -155c-102 0 -169 65 -169 155s67 155 169 155zM428 1082v-1133c0 -250 -141 -386 -381 -386c-51 0 -97 4 -148 17v239c32 -6 61 -9 92 -9c87 0 134 43 134 139v1133h303z" />
    <glyph glyph-name="k" unicode="k" horiz-adv-x="1101" 
d="M778 0l-267 426l-101 -101v-325h-302v1537h302v-841l50 65l271 321h362l-388 -449l419 -633h-346z" />
    <glyph glyph-name="l" unicode="l" horiz-adv-x="549" 
d="M426 0h-303v1536h303v-1536z" />
    <glyph glyph-name="m" unicode="m" horiz-adv-x="1771" 
d="M1318 1102c208 0 345 -109 345 -416v-686h-302v687c0 140 -59 171 -154 171c-83 0 -140 -43 -171 -112v-24v-722h-302v684c0 141 -58 174 -155 174c-79 0 -135 -37 -169 -97v-761h-302v1082h283l10 -121c71 89 175 141 310 141c129 0 231 -50 284 -164
c70 102 178 164 323 164z" />
    <glyph glyph-name="n" unicode="n" horiz-adv-x="1150" 
d="M705 1102c204 0 341 -107 341 -416v-686h-302v687c0 135 -61 171 -168 171c-81 0 -138 -37 -173 -96v-762h-302v1082h283l10 -125c75 94 182 145 311 145z" />
    <glyph glyph-name="ntilde" unicode="&#xf1;" horiz-adv-x="1150" 
d="M451 1340c-46 0 -82 -32 -82 -93l-173 9c0 143 95 270 228 270c106 0 176 -85 275 -85c46 0 84 32 84 94l172 -12c0 -146 -96 -268 -229 -268c-126 0 -171 85 -275 85zM705 1102c204 0 341 -107 341 -416v-686h-302v687c0 135 -61 171 -168 171c-81 0 -138 -37 -173 -96
v-762h-302v1082h283l10 -125c75 94 182 145 311 145z" />
    <glyph glyph-name="o" unicode="o" horiz-adv-x="1156" 
d="M63 551c0 316 185 551 514 551c332 0 516 -235 516 -551v-21c0 -315 -184 -550 -514 -550c-331 0 -516 235 -516 550v21zM365 530c0 -171 55 -307 214 -307c156 0 212 136 212 307v21c0 167 -55 308 -214 308c-156 0 -212 -141 -212 -308v-21z" />
    <glyph glyph-name="oacute" unicode="&#xf3;" horiz-adv-x="1156" 
d="M623 1536h326l-278 -311h-245zM63 551c0 316 185 551 514 551c332 0 516 -235 516 -551v-21c0 -315 -184 -550 -514 -550c-331 0 -516 235 -516 550v21zM365 530c0 -171 55 -307 214 -307c156 0 212 136 212 307v21c0 167 -55 308 -214 308c-156 0 -212 -141 -212 -308
v-21z" />
    <glyph glyph-name="ocircumflex" unicode="&#xf4;" horiz-adv-x="1156" 
d="M970 1256v-12h-238l-156 141l-155 -141h-235v16l303 276h174zM63 551c0 316 185 551 514 551c332 0 516 -235 516 -551v-21c0 -315 -184 -550 -514 -550c-331 0 -516 235 -516 550v21zM365 530c0 -171 55 -307 214 -307c156 0 212 136 212 307v21c0 167 -55 308 -214 308
c-156 0 -212 -141 -212 -308v-21z" />
    <glyph glyph-name="odieresis" unicode="&#xf6;" horiz-adv-x="1156" 
d="M327 1495c81 0 142 -57 142 -130c0 -72 -61 -129 -142 -129s-141 57 -141 129c0 73 60 130 141 130zM823 1494c81 0 142 -56 142 -129s-61 -129 -142 -129s-142 56 -142 129s61 129 142 129zM63 551c0 316 185 551 514 551c332 0 516 -235 516 -551v-21
c0 -315 -184 -550 -514 -550c-331 0 -516 235 -516 550v21zM365 530c0 -171 55 -307 214 -307c156 0 212 136 212 307v21c0 167 -55 308 -214 308c-156 0 -212 -141 -212 -308v-21z" />
    <glyph glyph-name="ograve" unicode="&#xf2;" horiz-adv-x="1156" 
d="M743 1225h-247l-277 311h326zM63 551c0 316 185 551 514 551c332 0 516 -235 516 -551v-21c0 -315 -184 -550 -514 -550c-331 0 -516 235 -516 550v21zM365 530c0 -171 55 -307 214 -307c156 0 212 136 212 307v21c0 167 -55 308 -214 308c-156 0 -212 -141 -212 -308
v-21z" />
    <glyph glyph-name="oslash" unicode="&#xf8;" horiz-adv-x="1155" 
d="M892 1006c131 -97 201 -261 201 -455v-21c0 -315 -184 -550 -514 -550c-64 0 -122 9 -175 25l-72 -148h-165l104 213c-135 97 -208 263 -208 460v21c0 316 185 551 514 551c67 0 129 -10 183 -28l70 143h165zM365 530c0 -74 10 -142 35 -195l250 512c-22 8 -46 12 -73 12
c-156 0 -212 -141 -212 -308v-21zM791 530v21c0 68 -9 132 -31 184l-245 -503c19 -6 40 -9 64 -9c156 0 212 136 212 307z" />
    <glyph glyph-name="otilde" unicode="&#xf5;" horiz-adv-x="1156" 
d="M955 1523c0 -146 -96 -268 -229 -268c-126 0 -171 85 -275 85c-46 0 -82 -32 -82 -93l-173 9c0 143 95 270 228 270c106 0 176 -85 275 -85c46 0 84 32 84 94zM63 551c0 316 185 551 514 551c332 0 516 -235 516 -551v-21c0 -315 -184 -550 -514 -550
c-331 0 -516 235 -516 550v21zM365 530c0 -171 55 -307 214 -307c156 0 212 136 212 307v21c0 167 -55 308 -214 308c-156 0 -212 -141 -212 -308v-21z" />
    <glyph glyph-name="oe" unicode="&#x153;" horiz-adv-x="1847" 
d="M1770 613v-169h-647c20 -123 98 -221 244 -221c143 0 216 32 300 74l80 -194c-80 -63 -227 -123 -414 -123c-155 0 -281 54 -370 143c-86 -90 -210 -143 -367 -143c-331 0 -515 235 -515 550v21c0 316 184 551 513 551c157 0 280 -52 367 -141c83 89 201 142 346 141
c297 0 463 -191 463 -489zM806 530v21c0 167 -53 308 -212 308c-157 0 -211 -141 -211 -308v-21c0 -171 54 -307 213 -307c156 0 210 136 210 307zM1474 647v26c0 112 -49 186 -167 186c-109 0 -164 -90 -182 -212h349z" />
    <glyph glyph-name="p" unicode="p" horiz-adv-x="1153" 
d="M667 1102c275 0 422 -220 422 -549v-21c0 -315 -147 -552 -420 -552c-112 0 -196 42 -259 113v-509h-302v1498h280l11 -104c64 78 151 124 268 124zM788 532v21c0 175 -55 305 -199 305c-90 0 -147 -35 -179 -99v-433c32 -64 89 -103 181 -103c146 0 197 140 197 309z
" />
    <glyph glyph-name="thorn" unicode="&#xfe;" horiz-adv-x="1159" 
d="M668 1102c275 0 422 -220 422 -549v-21c0 -315 -148 -552 -420 -552c-111 0 -196 42 -259 113v-509h-302v1952h302v-545c63 70 147 111 257 111zM789 532v21c0 175 -55 305 -199 305c-91 0 -147 -34 -179 -98v-435c32 -64 89 -102 181 -102c145 0 197 140 197 309z" />
    <glyph glyph-name="q" unicode="q" horiz-adv-x="1156" 
d="M781 1082h264v-1498h-303v508c-63 -70 -147 -112 -257 -112c-272 0 -422 236 -422 551v21c0 329 150 550 424 550c121 0 210 -49 274 -133zM562 223c91 0 147 38 180 100v439c-32 63 -89 97 -178 97c-145 0 -199 -132 -199 -307v-21c0 -170 51 -308 197 -308z" />
    <glyph glyph-name="r" unicode="r" horiz-adv-x="755" 
d="M641 1102c31 0 69 -5 91 -12l-4 -292c-29 4 -76 8 -107 8c-110 0 -178 -36 -211 -106v-700h-302v1082h284l9 -131c54 95 135 151 240 151z" />
    <glyph glyph-name="s" unicode="s" horiz-adv-x="1053" 
d="M469 433c-219 47 -384 143 -384 331c0 181 162 338 435 338c284 0 459 -146 459 -350h-302c0 83 -48 138 -158 138c-89 0 -145 -47 -145 -111c0 -61 51 -98 196 -125c230 -44 411 -122 411 -342c0 -191 -179 -332 -460 -332c-306 0 -470 191 -470 366h285
c4 -109 89 -153 192 -153c105 0 160 44 160 109c0 58 -42 93 -219 131z" />
    <glyph glyph-name="germandbls" unicode="&#xdf;" horiz-adv-x="1302" 
d="M437 0h-302v1101c0 303 186 459 485 459c234 0 427 -127 427 -374c0 -195 -104 -194 -104 -354c0 -128 294 -222 294 -472c0 -239 -160 -380 -453 -380c-103 0 -222 22 -277 54l56 239c42 -23 120 -50 216 -50c99 0 157 50 157 133c0 160 -295 205 -295 462
c0 181 106 199 106 354c0 87 -64 146 -152 146c-97 0 -158 -55 -158 -222v-1096z" />
    <glyph glyph-name="longs" unicode="&#x17f;" horiz-adv-x="534" 
d="M112 0v1174c0 248 151 383 405 383c55 0 107 -9 162 -21l-24 -232c-30 6 -55 10 -98 10c-93 0 -144 -51 -144 -140v-1174h-301z" />
    <glyph glyph-name="t" unicode="t" horiz-adv-x="695" 
d="M576 228c36 0 64 3 84 7v-227c-50 -18 -107 -28 -178 -28c-196 0 -318 92 -318 324v558h-153v220h153v268h302v-268h182v-220h-182v-523c0 -89 34 -111 110 -111z" />
    <glyph glyph-name="u" unicode="u" horiz-adv-x="1149" 
d="M744 1082h302v-1082h-283l-8 112c-67 -83 -165 -132 -294 -132c-214 0 -360 116 -360 402v700h301v-702c0 -110 60 -156 149 -156c99 0 160 37 193 97v761z" />
    <glyph glyph-name="uacute" unicode="&#xfa;" horiz-adv-x="1149" 
d="M947 1536l-278 -311h-245l197 311h326zM744 1082h302v-1082h-283l-8 112c-67 -83 -165 -132 -294 -132c-214 0 -360 116 -360 402v700h301v-702c0 -110 60 -156 149 -156c99 0 160 37 193 97v761z" />
    <glyph glyph-name="ucircumflex" unicode="&#xfb;" horiz-adv-x="1149" 
d="M574 1385l-155 -141h-235v16l303 276h174l307 -280v-12h-238zM744 1082h302v-1082h-283l-8 112c-67 -83 -165 -132 -294 -132c-214 0 -360 116 -360 402v700h301v-702c0 -110 60 -156 149 -156c99 0 160 37 193 97v761z" />
    <glyph glyph-name="udieresis" unicode="&#xfc;" horiz-adv-x="1149" 
d="M325 1236c-81 0 -141 57 -141 129c0 73 60 130 141 130s142 -57 142 -130c0 -72 -61 -129 -142 -129zM821 1236c-81 0 -142 56 -142 129s61 129 142 129s142 -56 142 -129s-61 -129 -142 -129zM744 1082h302v-1082h-283l-8 112c-67 -83 -165 -132 -294 -132
c-214 0 -360 116 -360 402v700h301v-702c0 -110 60 -156 149 -156c99 0 160 37 193 97v761z" />
    <glyph glyph-name="ugrave" unicode="&#xf9;" horiz-adv-x="1149" 
d="M741 1225h-247l-277 311h326zM744 1082h302v-1082h-283l-8 112c-67 -83 -165 -132 -294 -132c-214 0 -360 116 -360 402v700h301v-702c0 -110 60 -156 149 -156c99 0 160 37 193 97v761z" />
    <glyph glyph-name="v" unicode="v" horiz-adv-x="1042" 
d="M712 1082h316l-362 -1082h-293l-363 1082h317l193 -716z" />
    <glyph glyph-name="w" unicode="w" horiz-adv-x="1501" 
d="M1180 1082h290l-270 -1082h-253l-199 664l-198 -664h-253l-270 1082h290l133 -673l190 673h216l191 -672z" />
    <glyph glyph-name="x" unicode="x" horiz-adv-x="1046" 
d="M526 769l175 313h320l-302 -528l315 -554h-320l-187 333l-186 -333h-322l315 554l-301 528h322z" />
    <glyph glyph-name="y" unicode="y" horiz-adv-x="1037" 
d="M714 1082h323l-434 -1244c-38 -109 -115 -275 -349 -275c-57 0 -81 6 -131 19v228c15 -1 31 -1 45 -1c112 0 155 34 182 107l30 79l-378 1087h324l193 -656z" />
    <glyph glyph-name="yacute" unicode="&#xfd;" horiz-adv-x="1037" 
d="M896 1536l-278 -311h-245l197 311h326zM714 1082h323l-434 -1244c-38 -109 -115 -275 -349 -275c-57 0 -81 6 -131 19v228c15 -1 31 -1 45 -1c112 0 155 34 182 107l30 79l-378 1087h324l193 -656z" />
    <glyph glyph-name="ydieresis" unicode="&#xff;" horiz-adv-x="1037" 
d="M274 1236c-81 0 -141 57 -141 129c0 73 60 130 141 130s142 -57 142 -130c0 -72 -61 -129 -142 -129zM770 1236c-81 0 -142 56 -142 129s61 129 142 129s142 -56 142 -129s-61 -129 -142 -129zM714 1082h323l-434 -1244c-38 -109 -115 -275 -349 -275
c-57 0 -81 6 -131 19v228c15 -1 31 -1 45 -1c112 0 155 34 182 107l30 79l-378 1087h324l193 -656z" />
    <glyph glyph-name="z" unicode="z" horiz-adv-x="1046" 
d="M459 243h517v-243h-904v181l500 658h-483v243h872v-175z" />
    <glyph glyph-name="g.alt" horiz-adv-x="1083" 
d="M668 231c243 0 384 -111 384 -303c0 -168 -203 -366 -558 -366c-327 0 -503 129 -503 276c0 120 91 202 196 247c-28 31 -45 72 -45 125c0 88 54 147 116 188c-134 65 -213 181 -213 314v22c0 219 189 368 475 368c62 0 120 -7 172 -20h362l2 -154h-120
c39 -55 60 -120 60 -194v-22c0 -206 -187 -370 -474 -370c-52 0 -101 5 -146 15c-12 -14 -21 -31 -21 -54c0 -60 55 -72 127 -72h186zM345 734v-22c0 -76 65 -143 177 -143c110 0 174 67 174 143v22c0 80 -66 141 -176 141c-109 0 -175 -61 -175 -141zM494 -212
c182 0 258 66 258 123c0 46 -30 94 -133 94h-193c-32 0 -63 3 -93 8c-34 -20 -59 -57 -59 -102c0 -66 70 -123 220 -123z" />
    <glyph glyph-name="k.alt" horiz-adv-x="1102" 
d="M762 0l-266 441h-85v-441h-302v1536h302v-855h74l239 401h349l-336 -495l372 -587h-347z" />
    <glyph glyph-name="k.alt2" horiz-adv-x="1094" 
d="M1104 0h-357l-336 468v-468h-302v1560h302v-879l298 401h352l-391 -504z" />
    <glyph glyph-name="b.ss06" horiz-adv-x="1171" 
d="M667 1102c286 0 443 -223 443 -552v-21c0 -315 -157 -549 -441 -549c-125 0 -216 53 -281 141l-19 -121h-261v1536h302v-547c63 71 147 113 257 113zM808 529v21c0 176 -60 308 -217 308c-87 0 -146 -33 -181 -94v-445c35 -59 94 -95 183 -95c159 0 215 135 215 305z" />
    <glyph glyph-name="c.ss06" horiz-adv-x="1098" 
d="M760 379h283c-8 -235 -206 -399 -459 -399c-336 0 -519 239 -519 548v26c0 309 183 548 517 548c267 0 453 -161 461 -427h-283c-4 102 -69 184 -184 184c-160 0 -209 -145 -209 -305v-26c0 -164 48 -305 211 -305c103 0 178 60 182 156z" />
    <glyph glyph-name="d.ss06" horiz-adv-x="1176" 
d="M765 1536h302v-1536h-262l-20 122c-67 -88 -158 -142 -279 -142c-269 0 -441 235 -441 550v21c0 329 172 551 443 551c108 0 193 -43 257 -117v551zM583 224c85 0 145 37 182 100v437c-37 63 -97 97 -180 97c-144 0 -218 -131 -218 -307v-21c0 -170 70 -306 216 -306z
" />
    <glyph glyph-name="g.ss06" horiz-adv-x="1175" 
d="M804 1082h263v-1000c0 -326 -200 -508 -530 -508c-95 0 -219 18 -316 70l44 216c75 -31 143 -52 237 -52c180 0 263 90 263 274v12c-63 -71 -147 -114 -259 -114c-270 0 -441 236 -441 551v21c0 329 171 550 443 550c129 0 218 -47 280 -126zM583 224c89 0 147 35 182 94
v449c-35 59 -93 91 -180 91c-145 0 -218 -130 -218 -306v-21c0 -170 70 -307 216 -307z" />
    <glyph glyph-name="o.ss06" horiz-adv-x="1180" 
d="M57 551c0 316 203 551 532 551c332 0 534 -235 534 -551v-21c0 -315 -202 -550 -532 -550c-331 0 -534 235 -534 550v21zM358 530c0 -171 74 -307 233 -307c156 0 231 136 231 307v21c0 167 -74 308 -233 308c-156 0 -231 -141 -231 -308v-21z" />
    <glyph glyph-name="p.ss06" horiz-adv-x="1174" 
d="M667 1102c275 0 442 -221 442 -550v-21c0 -315 -167 -551 -440 -551c-112 0 -196 42 -259 113v-509h-302v1498h279l12 -105c64 79 151 125 268 125zM808 531v21c0 176 -75 306 -219 306c-86 0 -144 -32 -179 -91v-452c35 -57 93 -92 181 -92c146 0 217 138 217 308z" />
    <glyph glyph-name="q.ss06" horiz-adv-x="1178" 
d="M805 1082h262v-1498h-302v508c-63 -70 -147 -112 -258 -112c-271 0 -442 235 -442 550v21c0 329 170 551 444 551c122 0 211 -50 276 -135zM584 223c87 0 146 34 181 92v455c-36 58 -94 89 -179 89c-145 0 -219 -132 -219 -308v-21c0 -170 71 -307 217 -307z" />
    <glyph glyph-name="e.ss07" horiz-adv-x="1110" 
d="M1060 578v-135h-683c21 -133 113 -220 294 -220c98 0 214 30 287 70l55 -211c-75 -50 -209 -102 -386 -102c-344 0 -557 231 -557 528v39c0 320 189 555 509 555c311 0 481 -206 481 -524zM764 645v26c0 112 -53 188 -185 188c-121 0 -181 -88 -200 -214h385z" />
    <glyph glyph-name="g.ss07" horiz-adv-x="1172" 
d="M782 1082h263v-1003c0 -324 -200 -505 -530 -505c-93 0 -214 17 -309 66l44 216c73 -28 138 -48 230 -48c180 0 263 88 263 271v15c-63 -71 -147 -114 -259 -114c-270 0 -421 236 -421 551v21c0 329 151 550 423 550c130 0 218 -46 280 -126zM561 224
c93 0 150 39 182 104v430c-32 65 -89 100 -180 100c-144 0 -198 -130 -198 -306v-21c0 -170 50 -307 196 -307z" />
    <glyph glyph-name="f_f" horiz-adv-x="1474" 
d="M185 1174c0 248 155 383 401 383c54 0 104 -8 151 -20l-2 -233c-24 6 -52 9 -87 9c-103 0 -161 -50 -161 -139v-92h214v-220h-214v-862h-302v862h-160v220h160v92zM1385 1313c-103 0 -161 -50 -161 -139v-92h214v-220h-214v-862h-302v862h-160v220h160v92
c0 248 155 383 401 383c54 0 104 -8 151 -20l-2 -233c-24 6 -52 9 -87 9z" />
    <glyph glyph-name="f_f_i" horiz-adv-x="1922" 
d="M1143 1121v-39h212v-220h-212v-862h-303v862h-353v-862h-302v862h-160v220h160v92c0 248 155 383 401 383c54 0 104 -8 151 -20l-2 -233c-24 6 -52 9 -87 9c-103 0 -161 -50 -161 -139v-92h353v39c0 283 178 436 483 436c116 0 220 -24 335 -58l-43 -250
c-74 22 -153 45 -273 45c-131 0 -199 -60 -199 -173zM1495 1082h303v-1082h-303v1082z" />
    <glyph glyph-name="f_f_l" horiz-adv-x="1922" 
d="M1296 1557c120 0 360 -15 502 -28v-1529h-303v1304c-54 6 -106 9 -156 9c-127 0 -196 -55 -196 -156v-75h214v-220h-214v-862h-303v862h-353v-862h-302v862h-160v220h160v92c0 248 155 383 401 383c54 0 104 -8 151 -20l-2 -233c-24 6 -52 9 -87 9
c-103 0 -161 -50 -161 -139v-92h353v75c0 259 167 400 456 400z" />
    <glyph glyph-name="f_l" horiz-adv-x="1267" 
d="M641 1557c120 0 360 -15 502 -28v-1529h-303v1304c-55 6 -107 9 -157 9c-126 0 -196 -55 -196 -156v-75h214v-220h-214v-862h-302v862h-160v220h160v75c0 259 167 400 456 400z" />
    <glyph glyph-name="fi" unicode="&#xfb01;" horiz-adv-x="1261" 
d="M482 1121v-39h212v-220h-212v-862h-302v862h-160v220h160v39c0 283 178 436 483 436c115 0 219 -24 335 -58l-43 -250c-74 22 -153 45 -273 45c-131 0 -200 -60 -200 -173zM835 1082h302v-1082h-302v1082z" />
    <glyph glyph-name="A.smcp" horiz-adv-x="1201" 
d="M900 0l-80 216h-442l-78 -216h-304l459 1165h286l463 -1165h-304zM457 434h282l-143 383z" />
    <glyph glyph-name="Aacute.smcp" horiz-adv-x="1201" 
d="M975 1566l-278 -311h-245l197 311h326zM900 0l-80 216h-442l-78 -216h-304l459 1165h286l463 -1165h-304zM457 434h282l-143 383z" />
    <glyph glyph-name="Acircumflex.smcp" horiz-adv-x="1201" 
d="M602 1415l-155 -141h-235v16l303 276h174l307 -280v-12h-238zM900 0l-80 216h-442l-78 -216h-304l459 1165h286l463 -1165h-304zM457 434h282l-143 383z" />
    <glyph glyph-name="Adieresis.smcp" horiz-adv-x="1201" 
d="M353 1266c-81 0 -141 57 -141 129c0 73 60 130 141 130s142 -57 142 -130c0 -72 -61 -129 -142 -129zM849 1266c-81 0 -142 56 -142 129s61 129 142 129s142 -56 142 -129s-61 -129 -142 -129zM900 0l-80 216h-442l-78 -216h-304l459 1165h286l463 -1165h-304zM457 434
h282l-143 383z" />
    <glyph glyph-name="Agrave.smcp" horiz-adv-x="1201" 
d="M769 1255h-247l-277 311h326zM900 0l-80 216h-442l-78 -216h-304l459 1165h286l463 -1165h-304zM457 434h282l-143 383z" />
    <glyph glyph-name="Aring.smcp" horiz-adv-x="1201" 
d="M604 1249c-129 0 -223 89 -223 201c0 111 94 204 223 204s223 -93 223 -204c0 -112 -94 -201 -223 -201zM604 1558c-66 0 -107 -50 -107 -108s41 -106 107 -106c65 0 107 47 107 106c0 58 -42 108 -107 108zM900 0l-80 216h-442l-78 -216h-304l459 1165h286l463 -1165
h-304zM457 434h282l-143 383z" />
    <glyph glyph-name="Atilde.smcp" horiz-adv-x="1201" 
d="M477 1370c-46 0 -82 -32 -82 -93l-173 9c0 143 95 270 228 270c106 0 176 -85 275 -85c46 0 84 32 84 94l172 -12c0 -146 -96 -268 -229 -268c-126 0 -171 85 -275 85zM900 0l-80 216h-442l-78 -216h-304l459 1165h286l463 -1165h-304zM457 434h282l-143 383z" />
    <glyph glyph-name="AE.smcp" horiz-adv-x="1619" 
d="M1020 241h539v-241h-829l-8 216h-345l-98 -216h-328l576 1165h986v-241h-519l7 -198h451v-242h-441zM485 454h227l-17 460z" />
    <glyph glyph-name="B.smcp" horiz-adv-x="1137" 
d="M865 589c147 -36 200 -153 200 -255c0 -232 -161 -334 -471 -334h-499v1165h454c308 0 491 -105 491 -322c0 -104 -47 -207 -175 -254zM574 922h-176v-240h171c115 0 168 38 168 116c0 89 -54 124 -163 124zM594 243c122 0 170 57 170 114c0 77 -43 123 -157 123h-209
v-237h196z" />
    <glyph glyph-name="C.smcp" horiz-adv-x="1157" 
d="M1109 402c-13 -252 -209 -418 -518 -418c-335 0 -531 217 -531 574v48c0 358 209 576 527 576c327 0 500 -183 524 -428h-302c-4 99 -62 185 -222 185c-149 0 -225 -104 -225 -332v-49c0 -233 64 -331 229 -331c137 0 212 53 216 175h302z" />
    <glyph glyph-name="Ccedilla.smcp" horiz-adv-x="1157" 
d="M591 227c137 0 212 53 216 175h302c-11 -219 -161 -374 -404 -410l-7 -39c74 -13 150 -58 150 -173c0 -145 -122 -242 -356 -242l-7 174c62 0 107 23 107 80c0 53 -42 69 -141 76l27 125c-266 44 -418 250 -418 565v48c0 358 209 576 527 576c327 0 500 -183 524 -428
h-302c-4 99 -62 185 -222 185c-149 0 -225 -104 -225 -332v-49c0 -233 64 -331 229 -331z" />
    <glyph glyph-name="D.smcp" horiz-adv-x="1140" 
d="M498 1165c340 0 581 -234 581 -561v-43c0 -327 -242 -561 -577 -561h-407v1165h403zM776 561v45c0 209 -72 316 -278 316h-100v-679h104c201 0 274 101 274 318z" />
    <glyph glyph-name="Eth.smcp" horiz-adv-x="1140" 
d="M498 1165c340 0 581 -234 581 -561v-43c0 -327 -242 -561 -577 -561h-407v487h-210v186h210v492h403zM776 561v45c0 209 -72 316 -278 316h-100v-249h195v-186h-195v-244h104c201 0 274 101 274 318z" />
    <glyph glyph-name="E.smcp" horiz-adv-x="986" 
d="M960 922h-562v-198h474v-244h-474v-237h559v-243h-862v1165h865v-243z" />
    <glyph glyph-name="Eacute.smcp" horiz-adv-x="986" 
d="M928 1566l-278 -311h-245l197 311h326zM960 922h-562v-198h474v-244h-474v-237h559v-243h-862v1165h865v-243z" />
    <glyph glyph-name="Ecircumflex.smcp" horiz-adv-x="986" 
d="M555 1415l-155 -141h-235v16l303 276h174l307 -280v-12h-238zM960 922h-562v-198h474v-244h-474v-237h559v-243h-862v1165h865v-243z" />
    <glyph glyph-name="Edieresis.smcp" horiz-adv-x="986" 
d="M306 1266c-81 0 -141 57 -141 129c0 73 60 130 141 130s142 -57 142 -130c0 -72 -61 -129 -142 -129zM802 1266c-81 0 -142 56 -142 129s61 129 142 129s142 -56 142 -129s-61 -129 -142 -129zM960 922h-562v-198h474v-244h-474v-237h559v-243h-862v1165h865v-243z" />
    <glyph glyph-name="Egrave.smcp" horiz-adv-x="986" 
d="M722 1255h-247l-277 311h326zM960 922h-562v-198h474v-244h-474v-237h559v-243h-862v1165h865v-243z" />
    <glyph glyph-name="F.smcp" horiz-adv-x="963" 
d="M934 922h-536v-229h486v-244h-486v-449h-303v1165h839v-243z" />
    <glyph glyph-name="G.smcp" horiz-adv-x="1185" 
d="M1120 140c-65 -66 -228 -156 -498 -156c-333 0 -551 203 -551 568v60c0 366 224 570 535 570c345 0 488 -168 513 -409h-290c-18 112 -75 166 -213 166c-145 0 -243 -100 -243 -325v-62c0 -221 87 -325 271 -325c95 0 149 21 173 37v158h-218v213h521v-495z" />
    <glyph glyph-name="H.smcp" horiz-adv-x="1237" 
d="M841 1165h301v-1165h-301v449h-443v-449h-303v1165h303v-472h443v472z" />
    <glyph glyph-name="I.smcp" horiz-adv-x="532" 
d="M417 0h-302v1165h302v-1165z" />
    <glyph glyph-name="Iacute.smcp" horiz-adv-x="532" 
d="M314 1566h326l-278 -311h-245zM417 0h-302v1165h302v-1165z" />
    <glyph glyph-name="Icircumflex.smcp" horiz-adv-x="532" 
d="M661 1286v-12h-238l-156 141l-155 -141h-235v16l303 276h174zM417 0h-302v1165h302v-1165z" />
    <glyph glyph-name="Idieresis.smcp" horiz-adv-x="532" 
d="M18 1525c81 0 142 -57 142 -130c0 -72 -61 -129 -142 -129s-141 57 -141 129c0 73 60 130 141 130zM514 1524c81 0 142 -56 142 -129s-61 -129 -142 -129s-142 56 -142 129s61 129 142 129zM417 0h-302v1165h302v-1165z" />
    <glyph glyph-name="Igrave.smcp" horiz-adv-x="532" 
d="M434 1255h-247l-277 311h326zM417 0h-302v1165h302v-1165z" />
    <glyph glyph-name="J.smcp" horiz-adv-x="990" 
d="M592 1165h303v-763c0 -265 -191 -418 -424 -418c-263 0 -439 123 -439 395h302c0 -105 45 -152 137 -152c81 0 121 53 121 175v763z" />
    <glyph glyph-name="K.smcp" horiz-adv-x="1126" 
d="M788 0l-267 424l-123 -120v-304h-303v1165h303v-476l94 129l267 347h378l-411 -523l419 -642h-357z" />
    <glyph glyph-name="L.smcp" horiz-adv-x="955" 
d="M398 243h524v-243h-827v1165h303v-922z" />
    <glyph glyph-name="M.smcp" horiz-adv-x="1544" 
d="M1449 1165v-1165h-304v215l31 622l-305 -837h-200l-304 834l31 -619v-215h-303v1165h398l278 -768l278 768h400z" />
    <glyph glyph-name="N.smcp" horiz-adv-x="1236" 
d="M1141 0h-301l-442 708v-708h-303v1165h303l442 -708v708h301v-1165z" />
    <glyph glyph-name="Ntilde.smcp" horiz-adv-x="1236" 
d="M1003 1553c0 -146 -96 -268 -229 -268c-126 0 -171 85 -275 85c-46 0 -82 -32 -82 -93l-173 9c0 143 95 270 228 270c106 0 176 -85 275 -85c46 0 84 32 84 94zM1141 0h-301l-442 708v-708h-303v1165h303l442 -708v708h301v-1165z" />
    <glyph glyph-name="O.smcp" horiz-adv-x="1216" 
d="M1155 561c0 -356 -226 -577 -546 -577c-323 0 -549 221 -549 577v43c0 355 224 577 547 577c320 0 548 -222 548 -577v-43zM852 605c0 213 -91 335 -245 335c-159 0 -244 -122 -244 -335v-44c0 -211 87 -336 246 -336c153 0 243 125 243 336v44z" />
    <glyph glyph-name="Oacute.smcp" horiz-adv-x="1216" 
d="M652 1566h326l-278 -311h-245zM1155 561c0 -356 -226 -577 -546 -577c-323 0 -549 221 -549 577v43c0 355 224 577 547 577c320 0 548 -222 548 -577v-43zM852 605c0 213 -91 335 -245 335c-159 0 -244 -122 -244 -335v-44c0 -211 87 -336 246 -336
c153 0 243 125 243 336v44z" />
    <glyph glyph-name="Ocircumflex.smcp" horiz-adv-x="1216" 
d="M999 1286v-12h-238l-156 141l-155 -141h-235v16l303 276h174zM1155 561c0 -356 -226 -577 -546 -577c-323 0 -549 221 -549 577v43c0 355 224 577 547 577c320 0 548 -222 548 -577v-43zM852 605c0 213 -91 335 -245 335c-159 0 -244 -122 -244 -335v-44
c0 -211 87 -336 246 -336c153 0 243 125 243 336v44z" />
    <glyph glyph-name="Odieresis.smcp" horiz-adv-x="1216" 
d="M356 1525c81 0 142 -57 142 -130c0 -72 -61 -129 -142 -129s-141 57 -141 129c0 73 60 130 141 130zM852 1524c81 0 142 -56 142 -129s-61 -129 -142 -129s-142 56 -142 129s61 129 142 129zM1155 561c0 -356 -226 -577 -546 -577c-323 0 -549 221 -549 577v43
c0 355 224 577 547 577c320 0 548 -222 548 -577v-43zM852 605c0 213 -91 335 -245 335c-159 0 -244 -122 -244 -335v-44c0 -211 87 -336 246 -336c153 0 243 125 243 336v44z" />
    <glyph glyph-name="Ograve.smcp" horiz-adv-x="1216" 
d="M772 1255h-247l-277 311h326zM1155 561c0 -356 -226 -577 -546 -577c-323 0 -549 221 -549 577v43c0 355 224 577 547 577c320 0 548 -222 548 -577v-43zM852 605c0 213 -91 335 -245 335c-159 0 -244 -122 -244 -335v-44c0 -211 87 -336 246 -336c153 0 243 125 243 336
v44z" />
    <glyph glyph-name="Oslash.smcp" horiz-adv-x="1216" 
d="M1009 1017c92 -99 146 -240 146 -413v-43c0 -356 -226 -577 -546 -577c-111 0 -211 26 -294 75l-83 -114h-170l145 200c-93 100 -147 242 -147 416v43c0 355 224 577 547 577c111 0 212 -27 295 -77l82 113h170zM363 561c0 -64 8 -121 24 -168l362 500
c-38 31 -86 47 -142 47c-159 0 -244 -122 -244 -335v-44zM852 561v44c0 63 -8 118 -23 164l-361 -499c37 -29 85 -45 141 -45c153 0 243 125 243 336z" />
    <glyph glyph-name="Otilde.smcp" horiz-adv-x="1216" 
d="M984 1553c0 -146 -96 -268 -229 -268c-126 0 -171 85 -275 85c-46 0 -82 -32 -82 -93l-173 9c0 143 95 270 228 270c106 0 176 -85 275 -85c46 0 84 32 84 94zM1155 561c0 -356 -226 -577 -546 -577c-323 0 -549 221 -549 577v43c0 355 224 577 547 577
c320 0 548 -222 548 -577v-43zM852 605c0 213 -91 335 -245 335c-159 0 -244 -122 -244 -335v-44c0 -211 87 -336 246 -336c153 0 243 125 243 336v44z" />
    <glyph glyph-name="P.smcp" horiz-adv-x="1147" 
d="M595 1165c301 0 485 -172 485 -408c0 -225 -184 -380 -485 -380h-197v-377h-303v1165h500zM595 620c126 0 184 58 184 135c0 89 -58 167 -184 167h-197v-302h197z" />
    <glyph glyph-name="Thorn.smcp" horiz-adv-x="1047" 
d="M520 1007c301 0 485 -166 485 -392c0 -235 -184 -397 -485 -397h-122v-218h-303v1165h303v-158h122zM520 462c126 0 184 65 184 151c0 80 -58 150 -184 150h-122v-301h122z" />
    <glyph glyph-name="Q.smcp" horiz-adv-x="1216" 
d="M1157 561c0 -209 -78 -372 -208 -470l194 -147l-188 -162l-267 207c-26 -3 -51 -5 -78 -5c-322 0 -547 221 -547 577v43c0 355 223 577 546 577c319 0 548 -222 548 -577v-43zM364 561c0 -211 87 -336 246 -336c155 0 245 125 245 336v44c0 213 -92 335 -246 335
c-159 0 -245 -122 -245 -335v-44z" />
    <glyph glyph-name="R.smcp" horiz-adv-x="1150" 
d="M845 478l260 -465v-13h-325l-213 396h-169v-396h-303v1165h493c289 0 474 -119 474 -348c0 -190 -86 -279 -217 -339zM398 922v-283h190c114 0 172 50 172 143c0 90 -61 140 -172 140h-190z" />
    <glyph glyph-name="S.smcp" horiz-adv-x="1103" 
d="M527 467c-297 69 -429 155 -429 368c0 205 189 346 448 346c284 0 485 -131 485 -364h-302c0 75 -65 143 -181 143c-115 0 -165 -63 -165 -113c0 -63 54 -98 206 -136c295 -64 439 -166 439 -386c0 -217 -183 -341 -462 -341c-249 0 -508 111 -508 390h302
c0 -120 71 -169 223 -169c123 0 159 63 159 110c0 72 -50 113 -215 152z" />
    <glyph glyph-name="uni1E9E.smcp" horiz-adv-x="1137" 
d="M769 675c198 -38 312 -148 312 -321c0 -249 -176 -375 -387 -375c-106 0 -183 26 -243 60l86 222c24 -19 69 -47 121 -47c80 0 130 54 130 139c0 102 -77 138 -212 138h-82v186l167 208c-35 35 -79 60 -134 60c-81 0 -138 -66 -138 -204v-741h-294v743
c1 289 153 437 437 437c192 0 333 -87 457 -245z" />
    <glyph glyph-name="T.smcp" horiz-adv-x="1112" 
d="M1079 1165v-243h-376v-922h-304v922h-367v243h1047z" />
    <glyph glyph-name="U.smcp" horiz-adv-x="1170" 
d="M1078 1165v-752c0 -277 -195 -429 -492 -429c-294 0 -495 152 -495 429v752h302v-752c0 -132 70 -186 193 -186c124 0 189 54 189 186v752h303z" />
    <glyph glyph-name="Uacute.smcp" horiz-adv-x="1170" 
d="M627 1566h326l-278 -311h-245zM1078 1165v-752c0 -277 -195 -429 -492 -429c-294 0 -495 152 -495 429v752h302v-752c0 -132 70 -186 193 -186c124 0 189 54 189 186v752h303z" />
    <glyph glyph-name="Ucircumflex.smcp" horiz-adv-x="1170" 
d="M974 1286v-12h-238l-156 141l-155 -141h-235v16l303 276h174zM1078 1165v-752c0 -277 -195 -429 -492 -429c-294 0 -495 152 -495 429v752h302v-752c0 -132 70 -186 193 -186c124 0 189 54 189 186v752h303z" />
    <glyph glyph-name="Udieresis.smcp" horiz-adv-x="1170" 
d="M331 1525c81 0 142 -57 142 -130c0 -72 -61 -129 -142 -129s-141 57 -141 129c0 73 60 130 141 130zM827 1524c81 0 142 -56 142 -129s-61 -129 -142 -129s-142 56 -142 129s61 129 142 129zM1078 1165v-752c0 -277 -195 -429 -492 -429c-294 0 -495 152 -495 429v752
h302v-752c0 -132 70 -186 193 -186c124 0 189 54 189 186v752h303z" />
    <glyph glyph-name="Ugrave.smcp" horiz-adv-x="1170" 
d="M747 1255h-247l-277 311h326zM1078 1165v-752c0 -277 -195 -429 -492 -429c-294 0 -495 152 -495 429v752h302v-752c0 -132 70 -186 193 -186c124 0 189 54 189 186v752h303z" />
    <glyph glyph-name="V.smcp" horiz-adv-x="1164" 
d="M851 1165h317l-422 -1165h-330l-420 1165h316l259 -842l10 -47l8 43z" />
    <glyph glyph-name="W.smcp" horiz-adv-x="1531" 
d="M1208 1165h289l-265 -1165h-303l-168 706l-163 -706h-303l-266 1165h290l141 -772l170 772h265l172 -768z" />
    <glyph glyph-name="X.smcp" horiz-adv-x="1126" 
d="M548 797l196 368h347l-352 -578l383 -587h-357l-214 375l-204 -375h-348l363 587l-354 578h346z" />
    <glyph glyph-name="Y.smcp" horiz-adv-x="1107" 
d="M1110 1165l-409 -758v-407h-302v419l-403 746h327l230 -484l231 484h326z" />
    <glyph glyph-name="Yacute.smcp" horiz-adv-x="1107" 
d="M914 1566l-278 -311h-245l197 311h326zM1110 1165l-409 -758v-407h-302v419l-403 746h327l230 -484l231 484h326z" />
    <glyph glyph-name="Z.smcp" horiz-adv-x="1075" 
d="M457 243h576v-243h-976v156l577 766h-581v243h974v-152z" />
    <glyph glyph-name="ordfeminine" unicode="&#xaa;" horiz-adv-x="908" 
d="M781 705h-177c-7 21 -13 44 -17 68c-41 -44 -107 -82 -201 -82c-160 0 -249 90 -249 228c0 147 111 231 341 231h102v51c0 82 -38 127 -116 127c-86 0 -138 -35 -138 -99l-173 14c0 135 123 233 311 233c174 0 291 -93 291 -276v-314c0 -65 7 -123 26 -181zM312 923
c0 -55 37 -88 117 -88c53 0 115 29 151 62v136h-101c-116 0 -167 -52 -167 -110z" />
    <glyph glyph-name="ordmasculine" unicode="&#xba;" horiz-adv-x="937" 
d="M118 1121c0 207 134 355 346 355c215 0 347 -148 347 -355v-77c0 -207 -132 -354 -345 -354c-214 0 -348 147 -348 354v77zM293 1044c0 -119 56 -208 173 -208c114 0 170 89 170 208v77c0 117 -56 207 -172 207c-115 0 -171 -90 -171 -207v-77z" />
    <glyph glyph-name="alpha" unicode="&#x3b1;" horiz-adv-x="1154" 
d="M1125 230l25 -228c-44 -20 -80 -23 -126 -23c-122 0 -209 53 -257 168c-61 -103 -149 -167 -275 -167c-273 0 -421 222 -421 535v21c0 331 148 566 423 566c114 0 197 -56 256 -148l22 128h262v-724c0 -99 26 -131 71 -131c9 0 15 1 20 3zM568 223c79 0 130 31 164 85
v456c-34 61 -85 95 -162 95c-144 0 -197 -145 -197 -323v-21c0 -168 49 -292 195 -292z" />
    <glyph glyph-name="alpha.alt" horiz-adv-x="1193" 
d="M1117 0h-264l-25 160c-68 -112 -169 -181 -320 -181c-283 0 -437 223 -437 536v21c0 331 154 566 439 566c146 0 245 -70 313 -182l23 162h264l-108 -542zM768 490v71c-5 157 -60 298 -198 298c-144 0 -197 -145 -197 -323v-21c0 -168 49 -293 195 -293
c140 0 193 129 200 268z" />
    <glyph glyph-name="uni05F0" unicode="&#x5f0;" horiz-adv-x="1316" 
d="M181 0v955h-105v244h419v-1199h-314zM839 0v955h-105v244h419v-1199h-314z" />
    <glyph glyph-name="uni05F1" unicode="&#x5f1;" horiz-adv-x="1362" 
d="M181 0v955h-105v244h419v-1199h-314zM897 515v440h-188v244h502v-684h-314z" />
    <glyph glyph-name="uni05F2" unicode="&#x5f2;" horiz-adv-x="1408" 
d="M239 515v440h-188v244h502v-684h-314zM943 515v440h-188v244h502v-684h-314z" />
    <glyph glyph-name="uniFB4F" unicode="&#xfb4f;" horiz-adv-x="1267" 
d="M1192 1199l-366 -702l343 -497h-349l-755 1091v375h314v-321l256 -371l206 425h351z" />
    <glyph glyph-name="uni05D0" unicode="&#x5d0;" horiz-adv-x="1376" 
d="M1302 1199l-362 -694l350 -505h-350l-446 643c-24 -29 -34 -64 -34 -111v-532h-303v397c0 220 63 348 216 421l-265 381h351l289 -417l202 417h352z" />
    <glyph glyph-name="uni05D1" unicode="&#x5d1;" horiz-adv-x="1114" 
d="M945 255l139 -21v-234h-1031v245h578v530c0 121 -63 180 -191 180h-323v244h345c306 0 483 -160 483 -439v-505z" />
    <glyph glyph-name="uni05D2" unicode="&#x5d2;" horiz-adv-x="909" 
d="M88 -13c-25 0 -52 2 -76 5v283c33 -5 65 -8 94 -8c152 2 249 72 298 200v488h-262v244h571v-607c0 -63 7 -131 20 -193l80 -399h-289l-71 303h-6c-31 -178 -175 -316 -359 -316z" />
    <glyph glyph-name="uni05D3" unicode="&#x5d3;" horiz-adv-x="1160" 
d="M60 1199h1032v-244h-211v-955h-313v955h-508v244z" />
    <glyph glyph-name="uni05D4" unicode="&#x5d4;" horiz-adv-x="1278" 
d="M831 0v775c0 121 -62 180 -191 180h-495v244h518c306 0 482 -160 482 -439v-760h-314zM141 0v411c0 165 49 231 72 258h250c-11 -52 -19 -124 -19 -224v-445h-303z" />
    <glyph glyph-name="uni05D5" unicode="&#x5d5;" horiz-adv-x="658" 
d="M181 0v955h-105v244h419v-1199h-314z" />
    <glyph glyph-name="uni05D6" unicode="&#x5d6;" horiz-adv-x="796" 
d="M269 0l-134 946l-67 17v236h665v-244h-291l149 -955h-322z" />
    <glyph glyph-name="uni05D7" unicode="&#x5d7;" horiz-adv-x="1297" 
d="M163 0l1 1199h522c314 0 476 -154 478 -454v-745h-313l-2 771c0 124 -54 184 -162 184h-210v-955h-314z" />
    <glyph glyph-name="uni05D8" unicode="&#x5d8;" horiz-adv-x="1308" 
d="M686 -24c-313 0 -523 207 -523 517v706h314v-742c0 -144 84 -240 208 -240c125 0 209 96 209 240v345c0 105 -45 157 -136 157c-31 0 -67 -6 -109 -16l-30 201c71 41 170 69 249 69c212 0 340 -145 340 -386v-334c0 -310 -209 -517 -522 -517z" />
    <glyph glyph-name="uni05D9" unicode="&#x5d9;" horiz-adv-x="704" 
d="M239 515v440h-188v244h502v-684h-314z" />
    <glyph glyph-name="uni05DA" unicode="&#x5da;" horiz-adv-x="1069" 
d="M597 -416v1371h-528v244h836v-1615h-308z" />
    <glyph glyph-name="uni05DB" unicode="&#x5db;" horiz-adv-x="1132" 
d="M413 -19c-106 0 -223 17 -349 47l48 228c101 -22 187 -33 259 -33c197 1 284 88 284 255v477h-545v244h858v-667c0 -390 -219 -551 -555 -551z" />
    <glyph glyph-name="uni05DC" unicode="&#x5dc;" horiz-adv-x="1115" 
d="M1045 1199v-201l-397 -998h-332l392 955h-643v581h314v-337h666z" />
    <glyph glyph-name="uni05DD" unicode="&#x5dd;" horiz-adv-x="1349" 
d="M163 0v1199h1023v-1199h-1023zM477 245h395v710h-395v-710z" />
    <glyph glyph-name="uni05DE" unicode="&#x5de;" horiz-adv-x="1362" 
d="M155 0l77 675c13 108 58 213 114 269c4 4 9 9 14 11l-1 5c-53 -8 -137 -33 -187 -53l-67 228c154 56 379 95 565 95c364 0 557 -189 559 -551v-679h-525v244h211l-1 477c0 160 -68 253 -185 253c-113 0 -176 -92 -193 -259l-71 -715h-310z" />
    <glyph glyph-name="uni05DF" unicode="&#x5df;" horiz-adv-x="654" 
d="M182 -416v1371h-109v244h417v-1615h-308z" />
    <glyph glyph-name="uni05E0" unicode="&#x5e0;" horiz-adv-x="819" 
d="M289 -20c-79 0 -140 9 -229 28l1 236c47 -7 96 -10 145 -10c92 0 136 49 136 155v566h-212v244h526v-835c0 -243 -136 -384 -367 -384z" />
    <glyph glyph-name="uni05E1" unicode="&#x5e1;" horiz-adv-x="1325" 
d="M680 -24c-316 0 -533 225 -538 563v73c-2 117 55 263 116 329c6 6 10 11 16 15l-2 5c-38 -7 -112 -26 -155 -37l-59 228c162 47 393 78 580 78c372 0 580 -200 580 -574v-117c0 -338 -215 -563 -538 -563zM679 235c135 0 225 121 225 302v113c0 210 -81 324 -226 324
c-142 0 -222 -121 -223 -341v-96c0 -181 90 -302 224 -302z" />
    <glyph glyph-name="uni05E2" unicode="&#x5e2;" horiz-adv-x="1283" 
d="M806 1199h314v-687c0 -355 -237 -541 -584 -541c-140 0 -300 22 -476 88l65 229c101 -39 193 -63 273 -75c-45 43 -85 103 -100 171l-185 815h316l176 -846c10 -45 22 -85 40 -120c102 42 161 130 161 263v703z" />
    <glyph glyph-name="uni05E3" unicode="&#x5e3;" horiz-adv-x="1284" 
d="M1121 1199v-1615h-310v1371h-286c-29 -76 -43 -163 -43 -244v-99c30 -8 71 -11 107 -10v-211c-151 -25 -305 -2 -410 63v153c-1 128 27 269 77 348h-124v244h989z" />
    <glyph glyph-name="uni05E4" unicode="&#x5e4;" horiz-adv-x="1359" 
d="M613 -26c-134 0 -305 26 -444 76l58 229c133 -38 274 -56 364 -56c192 1 290 87 290 255v477h-356c-29 -76 -43 -147 -43 -227v-58c30 -8 71 -11 107 -9v-211c-151 -26 -305 -3 -410 63v111c0 128 27 252 77 331h-124v244h1063v-676c0 -391 -261 -550 -582 -549z" />
    <glyph glyph-name="uni05E5" unicode="&#x5e5;" horiz-adv-x="1187" 
d="M1157 1199l-353 -677c45 -68 65 -133 65 -219v-719h-299v753c0 41 -10 75 -36 114l-505 748h349l243 -398l185 398h351z" />
    <glyph glyph-name="uni05E6" unicode="&#x5e6;" horiz-adv-x="1206" 
d="M1157 1199l-349 -670l268 -387v-142h-948v245h545l-644 954h349l246 -392l182 392h351z" />
    <glyph glyph-name="uni05E7" unicode="&#x5e7;" horiz-adv-x="1337" 
d="M598 0v238c166 7 262 102 262 286v431h-697v244h1011v-668c0 -334 -216 -519 -576 -531zM173 -416v836c0 163 48 230 71 257h251c-12 -52 -19 -124 -19 -224v-869h-303z" />
    <glyph glyph-name="uni05E8" unicode="&#x5e8;" horiz-adv-x="1018" 
d="M571 0v792c0 106 -61 163 -175 163h-361v244h384c292 0 466 -157 466 -423v-776h-314z" />
    <glyph glyph-name="uni05E9" unicode="&#x5e9;" horiz-adv-x="1774" 
d="M466 1199v-910c113 -48 254 -81 368 -81c276 0 473 113 473 372v619h303v-654c0 -392 -345 -582 -763 -582c-219 0 -467 53 -684 157v1079h303zM689 382c26 50 40 153 40 261v556h304v-490c0 -135 -33 -262 -89 -328z" />
    <glyph glyph-name="uni05EA" unicode="&#x5ea;" horiz-adv-x="1323" 
d="M712 1199c314 0 478 -154 478 -454v-745h-313l-2 771c0 124 -53 184 -162 184h-155c-20 -74 -32 -168 -32 -246v-343c0 -243 -135 -384 -364 -384c-57 0 -99 5 -152 14v242c22 -1 43 -2 66 -2c94 0 145 48 145 154v291c0 80 21 198 68 274h-187v244h610z" />
    <glyph glyph-name="uniFB1F" unicode="&#xfb1f;" horiz-adv-x="1408" 
d="M239 515v440h-188v244h502v-684h-314zM943 515v440h-188v244h502v-684h-314zM157 -315v133h478v-133h-478z" />
    <glyph glyph-name="uniFB20" unicode="&#xfb20;" horiz-adv-x="1314" 
d="M837 1199h313l-30 -688c-16 -356 -237 -551 -584 -551c-140 0 -300 32 -476 97l65 229c112 -43 212 -68 298 -78c-47 43 -90 106 -106 176l-185 815h316l176 -846c9 -43 20 -81 37 -114c90 44 140 130 145 255z" />
    <glyph glyph-name="uniFB21" unicode="&#xfb21;" horiz-adv-x="1884" 
d="M1809 1199l-423 -825l393 -374h-426l-825 794c-20 -61 -30 -132 -30 -230v-564h-303v566c0 174 57 298 176 379l-263 254h414l642 -612l295 612h350z" />
    <glyph glyph-name="uniFB22" unicode="&#xfb22;" horiz-adv-x="1440" 
d="M60 1199h1312v-232l-258 -28v-939h-314v955h-740v244z" />
    <glyph glyph-name="uniFB23" unicode="&#xfb23;" horiz-adv-x="1663" 
d="M1216 0v792c0 106 -62 163 -174 163h-897v244h919c293 0 466 -157 466 -423v-776h-314zM141 0v398c0 125 39 220 42 229l281 39l14 -12c-9 -49 -29 -169 -29 -259v-395h-308z" />
    <glyph glyph-name="uniFB24" unicode="&#xfb24;" horiz-adv-x="1554" 
d="M665 -38c-168 0 -394 25 -601 74l45 244c209 -43 412 -64 545 -64c300 0 421 105 423 296v443h-966v244h1279v-688c-2 -372 -280 -549 -725 -549z" />
    <glyph glyph-name="uniFB25" unicode="&#xfb25;" horiz-adv-x="1458" 
d="M1388 1199v-201l-578 -998h-332l536 955h-949v511h314v-267h1009z" />
    <glyph glyph-name="uniFB26" unicode="&#xfb26;" horiz-adv-x="1822" 
d="M152 0v1199h1513v-1199h-1513zM466 245h885v710h-885v-710z" />
    <glyph glyph-name="uniFB27" unicode="&#xfb27;" horiz-adv-x="1388" 
d="M941 0v792c0 106 -61 163 -174 163h-732v244h754c293 0 466 -157 466 -423v-776h-314z" />
    <glyph glyph-name="uniFB28" unicode="&#xfb28;" horiz-adv-x="1819" 
d="M1209 1199c312 0 476 -154 476 -454v-745h-312l-1 771c0 124 -55 184 -163 184h-651c-20 -74 -32 -168 -32 -246v-343c0 -243 -135 -384 -364 -384c-57 0 -99 5 -152 14v242c22 -1 43 -2 66 -2c94 0 145 48 145 154v291c0 80 21 198 68 274h-187v244h1107z" />
    <glyph glyph-name="uniFB2A" unicode="&#xfb2a;" horiz-adv-x="1774" 
d="M1444 1352c-58 0 -102 39 -102 90c0 53 44 92 102 92c59 0 102 -39 102 -92c0 -52 -43 -90 -102 -90zM466 1199v-910c113 -48 254 -81 368 -81c276 0 473 113 473 372v619h303v-654c0 -392 -345 -582 -763 -582c-219 0 -467 53 -684 157v1079h303zM689 382
c26 50 40 153 40 261v556h304v-490c0 -135 -33 -262 -89 -328z" />
    <glyph glyph-name="uniFB2B" unicode="&#xfb2b;" horiz-adv-x="1774" 
d="M304 1352c-58 0 -102 39 -102 90c0 53 44 92 102 92s101 -39 101 -92c0 -52 -43 -90 -101 -90zM466 1199v-910c113 -48 254 -81 368 -81c276 0 473 113 473 372v619h303v-654c0 -392 -345 -582 -763 -582c-219 0 -467 53 -684 157v1079h303zM689 382c26 50 40 153 40 261
v556h304v-490c0 -135 -33 -262 -89 -328z" />
    <glyph glyph-name="uniFB2C" unicode="&#xfb2c;" horiz-adv-x="1774" 
d="M1444 1352c-58 0 -102 39 -102 90c0 53 44 92 102 92c59 0 102 -39 102 -92c0 -52 -43 -90 -102 -90zM466 1199v-910c113 -48 254 -81 368 -81c276 0 473 113 473 372v619h303v-654c0 -392 -345 -582 -763 -582c-219 0 -467 53 -684 157v1079h303zM689 382
c26 50 40 153 40 261v556h304v-490c0 -135 -33 -262 -89 -328zM1166 513c-58 0 -102 39 -102 90c0 53 44 91 102 91c59 0 102 -38 102 -91c0 -52 -43 -90 -102 -90z" />
    <glyph glyph-name="uniFB2D" unicode="&#xfb2d;" horiz-adv-x="1774" 
d="M304 1352c-58 0 -102 39 -102 90c0 53 44 92 102 92s101 -39 101 -92c0 -52 -43 -90 -101 -90zM466 1199v-910c113 -48 254 -81 368 -81c276 0 473 113 473 372v619h303v-654c0 -392 -345 -582 -763 -582c-219 0 -467 53 -684 157v1079h303zM689 382c26 50 40 153 40 261
v556h304v-490c0 -135 -33 -262 -89 -328zM1166 513c-58 0 -102 39 -102 90c0 53 44 91 102 91c59 0 102 -38 102 -91c0 -52 -43 -90 -102 -90z" />
    <glyph glyph-name="uniFB2E" unicode="&#xfb2e;" horiz-adv-x="1376" 
d="M1302 1199l-362 -694l350 -505h-350l-446 643c-24 -29 -34 -64 -34 -111v-532h-303v397c0 220 63 348 216 421l-265 381h351l289 -417l202 417h352zM457 -315v133h478v-133h-478z" />
    <glyph glyph-name="uniFB2F" unicode="&#xfb2f;" horiz-adv-x="1376" 
d="M1302 1199l-362 -694l350 -505h-350l-446 643c-24 -29 -34 -64 -34 -111v-532h-303v397c0 220 63 348 216 421l-265 381h351l289 -417l202 417h352zM485 -315v133h423v-133h-172c12 -112 62 -123 62 -180c0 -52 -43 -91 -101 -91s-102 40 -102 91c0 57 51 68 61 180h-171
z" />
    <glyph glyph-name="uniFB30" unicode="&#xfb30;" horiz-adv-x="1376" 
d="M1302 1199l-362 -694l350 -505h-350l-446 643c-24 -29 -34 -64 -34 -111v-532h-303v397c0 220 63 348 216 421l-265 381h351l289 -417l202 417h352zM622 254c59 0 102 -38 102 -91c0 -52 -43 -90 -102 -90c-58 0 -102 39 -102 90c0 53 44 91 102 91z" />
    <glyph glyph-name="uniFB31" unicode="&#xfb31;" horiz-adv-x="1114" 
d="M945 255l139 -21v-234h-1031v245h578v530c0 121 -63 180 -191 180h-323v244h345c306 0 483 -160 483 -439v-505zM450 603c0 -52 -43 -90 -102 -90c-58 0 -102 39 -102 90c0 53 44 91 102 91c59 0 102 -38 102 -91z" />
    <glyph glyph-name="uniFB32" unicode="&#xfb32;" horiz-adv-x="909" 
d="M88 -13c-25 0 -52 2 -76 5v283c33 -5 65 -8 94 -8c152 2 249 72 298 200v488h-262v244h571v-607c0 -63 7 -131 20 -193l80 -399h-289l-71 303h-6c-31 -178 -175 -316 -359 -316zM168 513c-58 0 -102 39 -102 90c0 53 44 91 102 91c59 0 102 -38 102 -91
c0 -52 -43 -90 -102 -90z" />
    <glyph glyph-name="uniFB33" unicode="&#xfb33;" horiz-adv-x="1160" 
d="M60 1199h1032v-244h-211v-955h-313v955h-508v244zM291 513c-58 0 -102 39 -102 90c0 53 44 91 102 91c59 0 102 -38 102 -91c0 -52 -43 -90 -102 -90z" />
    <glyph glyph-name="uniFB34" unicode="&#xfb34;" horiz-adv-x="1278" 
d="M831 0v775c0 121 -62 180 -191 180h-495v244h518c306 0 482 -160 482 -439v-760h-314zM638 513c-58 0 -102 39 -102 90c0 53 44 91 102 91c59 0 102 -38 102 -91c0 -52 -43 -90 -102 -90zM141 0v411c0 165 49 231 72 258h250c-11 -52 -19 -124 -19 -224v-445h-303z" />
    <glyph glyph-name="uniFB35" unicode="&#xfb35;" horiz-adv-x="658" 
d="M181 0v955h-105v244h419v-1199h-314zM24 513c-58 0 -102 39 -102 90c0 53 44 91 102 91c59 0 102 -38 102 -91c0 -52 -43 -90 -102 -90z" />
    <glyph glyph-name="uniFB36" unicode="&#xfb36;" horiz-adv-x="796" 
d="M269 0l-134 946l-67 17v236h665v-244h-291l149 -955h-322zM646 513c-58 0 -102 39 -102 90c0 53 44 91 102 91c59 0 102 -38 102 -91c0 -52 -43 -90 -102 -90z" />
    <glyph glyph-name="uniFB38" unicode="&#xfb38;" horiz-adv-x="1308" 
d="M686 -24c-313 0 -523 207 -523 517v706h314v-742c0 -144 84 -240 208 -240c125 0 209 96 209 240v345c0 105 -45 157 -136 157c-31 0 -67 -6 -109 -16l-30 201c71 41 170 69 249 69c212 0 340 -145 340 -386v-334c0 -310 -209 -517 -522 -517zM686 513
c-58 0 -102 39 -102 90c0 53 44 91 102 91c59 0 102 -38 102 -91c0 -52 -43 -90 -102 -90z" />
    <glyph glyph-name="uniFB39" unicode="&#xfb39;" horiz-adv-x="704" 
d="M239 515v440h-188v244h502v-684h-314zM55 668c-58 0 -102 39 -102 90c0 53 44 91 102 91c59 0 102 -38 102 -91c0 -52 -43 -90 -102 -90z" />
    <glyph glyph-name="uniFB3A" unicode="&#xfb3a;" horiz-adv-x="1069" 
d="M597 -416v1371h-528v244h836v-1615h-308zM305 577c-58 0 -102 39 -102 90c0 53 44 91 102 91c59 0 102 -38 102 -91c0 -52 -43 -90 -102 -90z" />
    <glyph glyph-name="uniFB3B" unicode="&#xfb3b;" horiz-adv-x="1132" 
d="M413 -19c-106 0 -223 17 -349 47l48 228c101 -22 187 -33 259 -33c197 1 284 88 284 255v477h-545v244h858v-667c0 -390 -219 -551 -555 -551zM362 513c-58 0 -102 39 -102 90c0 53 44 91 102 91c59 0 102 -38 102 -91c0 -52 -43 -90 -102 -90z" />
    <glyph glyph-name="uniFB3C" unicode="&#xfb3c;" horiz-adv-x="1115" 
d="M1045 1199v-201l-397 -998h-332l392 955h-643v581h314v-337h666zM396 658c0 -52 -43 -90 -102 -90c-58 0 -102 39 -102 90c0 53 44 91 102 91c59 0 102 -38 102 -91z" />
    <glyph glyph-name="uniFB3E" unicode="&#xfb3e;" horiz-adv-x="1362" 
d="M155 0l77 675c13 108 58 213 114 269c4 4 9 9 14 11l-1 5c-53 -8 -137 -33 -187 -53l-67 228c154 56 379 95 565 95c364 0 557 -189 559 -551v-679h-525v244h211l-1 477c0 160 -68 253 -185 253c-113 0 -176 -92 -193 -259l-71 -715h-310zM721 513c-58 0 -102 39 -102 90
c0 53 44 91 102 91c59 0 102 -38 102 -91c0 -52 -43 -90 -102 -90z" />
    <glyph glyph-name="uniFB40" unicode="&#xfb40;" horiz-adv-x="819" 
d="M289 -20c-79 0 -140 9 -229 28l1 236c47 -7 96 -10 145 -10c92 0 136 49 136 155v566h-212v244h526v-835c0 -243 -136 -384 -367 -384zM138 513c-58 0 -102 39 -102 90c0 53 44 91 102 91c59 0 102 -38 102 -91c0 -52 -43 -90 -102 -90z" />
    <glyph glyph-name="uniFB41" unicode="&#xfb41;" horiz-adv-x="1325" 
d="M680 -24c-316 0 -533 225 -538 563v73c-2 117 55 263 116 329c6 6 10 11 16 15l-2 5c-38 -7 -112 -26 -155 -37l-59 228c162 47 393 78 580 78c372 0 580 -200 580 -574v-117c0 -338 -215 -563 -538 -563zM679 235c135 0 225 121 225 302v113c0 210 -81 324 -226 324
c-142 0 -222 -121 -223 -341v-96c0 -181 90 -302 224 -302zM680 513c-58 0 -102 39 -102 90c0 53 44 91 102 91c59 0 102 -38 102 -91c0 -52 -43 -90 -102 -90z" />
    <glyph glyph-name="uniFB43" unicode="&#xfb43;" horiz-adv-x="1284" 
d="M1121 1199v-1615h-310v1371h-286c-29 -76 -43 -163 -43 -244v-99c30 -8 71 -11 107 -10v-211c-151 -25 -305 -2 -410 63v153c-1 128 27 269 77 348h-124v244h989zM649 674c-58 0 -102 39 -102 90c0 53 44 91 102 91c59 0 102 -38 102 -91c0 -52 -43 -90 -102 -90z" />
    <glyph glyph-name="uniFB44" unicode="&#xfb44;" horiz-adv-x="1359" 
d="M613 -26c-134 0 -305 26 -444 76l58 229c133 -38 274 -56 364 -56c192 1 290 87 290 255v477h-356c-29 -76 -43 -147 -43 -227v-58c30 -8 71 -11 107 -9v-211c-151 -26 -305 -3 -410 63v111c0 128 27 252 77 331h-124v244h1063v-676c0 -391 -261 -550 -582 -549zM690 693
c-58 0 -102 39 -102 90c0 53 44 91 102 91c59 0 102 -38 102 -91c0 -52 -43 -90 -102 -90z" />
    <glyph glyph-name="uniFB46" unicode="&#xfb46;" horiz-adv-x="1206" 
d="M1157 1199l-349 -670l268 -387v-142h-948v245h545l-644 954h349l246 -392l182 392h351zM395 428c0 -52 -43 -90 -102 -90c-58 0 -102 39 -102 90c0 53 44 91 102 91c59 0 102 -38 102 -91z" />
    <glyph glyph-name="uniFB47" unicode="&#xfb47;" horiz-adv-x="1337" 
d="M598 0v238c166 7 262 102 262 286v431h-697v244h1011v-668c0 -334 -216 -519 -576 -531zM667 513c-58 0 -102 39 -102 90c0 53 44 91 102 91c59 0 102 -38 102 -91c0 -52 -43 -90 -102 -90zM173 -416v836c0 163 48 230 71 257h251c-12 -52 -19 -124 -19 -224v-869h-303z
" />
    <glyph glyph-name="uniFB48" unicode="&#xfb48;" horiz-adv-x="1018" 
d="M571 0v792c0 106 -61 163 -175 163h-361v244h384c292 0 466 -157 466 -423v-776h-314zM284 513c-58 0 -102 39 -102 90c0 53 44 91 102 91c59 0 102 -38 102 -91c0 -52 -43 -90 -102 -90z" />
    <glyph glyph-name="uniFB49" unicode="&#xfb49;" horiz-adv-x="1774" 
d="M466 1199v-910c113 -48 254 -81 368 -81c276 0 473 113 473 372v619h303v-654c0 -392 -345 -582 -763 -582c-219 0 -467 53 -684 157v1079h303zM689 382c26 50 40 153 40 261v556h304v-490c0 -135 -33 -262 -89 -328zM1166 513c-58 0 -102 39 -102 90c0 53 44 91 102 91
c59 0 102 -38 102 -91c0 -52 -43 -90 -102 -90z" />
    <glyph glyph-name="uniFB4A" unicode="&#xfb4a;" horiz-adv-x="1323" 
d="M712 1199c314 0 478 -154 478 -454v-745h-313l-2 771c0 124 -53 184 -162 184h-155c-20 -74 -32 -168 -32 -246v-343c0 -243 -135 -384 -364 -384c-57 0 -99 5 -152 14v242c22 -1 43 -2 66 -2c94 0 145 48 145 154v291c0 80 21 198 68 274h-187v244h610zM698 513
c-58 0 -102 39 -102 90c0 53 44 91 102 91c59 0 102 -38 102 -91c0 -52 -43 -90 -102 -90z" />
    <glyph glyph-name="uniFB4B" unicode="&#xfb4b;" horiz-adv-x="658" 
d="M289 1352c-58 0 -102 39 -102 90c0 53 44 92 102 92c59 0 101 -39 101 -92c0 -52 -42 -90 -101 -90zM181 0v955h-105v244h419v-1199h-314z" />
    <glyph glyph-name="uniFB4C" unicode="&#xfb4c;" horiz-adv-x="1114" 
d="M800 1526v-159h-582v159h582zM945 255l139 -21v-234h-1031v245h578v530c0 121 -63 180 -191 180h-323v244h345c306 0 483 -160 483 -439v-505z" />
    <glyph glyph-name="uniFB4D" unicode="&#xfb4d;" horiz-adv-x="1132" 
d="M228 1367v159h582v-159h-582zM413 -19c-106 0 -223 17 -349 47l48 228c101 -22 187 -33 259 -33c197 1 284 88 284 255v477h-545v244h858v-667c0 -390 -219 -551 -555 -551z" />
    <glyph glyph-name="uniFB4E" unicode="&#xfb4e;" horiz-adv-x="1359" 
d="M369 1367v159h582v-159h-582zM613 -26c-134 0 -305 26 -444 76l58 229c133 -38 274 -56 364 -56c192 1 290 87 290 255v477h-356c-29 -76 -43 -147 -43 -227v-58c30 -8 71 -11 107 -9v-211c-151 -26 -305 -3 -410 63v111c0 128 27 252 77 331h-124v244h1063v-676
c0 -391 -261 -550 -582 -549z" />
    <glyph glyph-name="uni05D2.001" horiz-adv-x="942" 
d="M122 -13c-25 0 -53 2 -77 5v283c34 -5 66 -8 95 -8c151 2 248 72 298 200v488h-263v244h571v-607c0 -63 7 -131 20 -193l80 -399h-288l-72 303h-6c-31 -178 -175 -316 -358 -316z" />
    <glyph glyph-name="uni05E8.001" horiz-adv-x="1048" 
d="M624 0v792c0 106 -61 163 -174 163h-362v244h385c291 0 465 -157 465 -423v-776h-314z" />
    <glyph glyph-name="uni05E8.002" horiz-adv-x="1048" 
d="M624 0v792c0 106 -61 163 -174 163h-362v244h385c291 0 465 -157 465 -423v-776h-314z" />
    <glyph glyph-name="uni05E8.003" horiz-adv-x="1048" 
d="M624 0v792c0 106 -61 163 -174 163h-362v244h385c291 0 465 -157 465 -423v-776h-314z" />
    <glyph glyph-name="uni05E8.004" horiz-adv-x="1048" 
d="M624 0v792c0 106 -61 163 -174 163h-362v244h385c291 0 465 -157 465 -423v-776h-314z" />
    <glyph glyph-name="zero" unicode="0" horiz-adv-x="1178" 
d="M1085 600c0 -431 -200 -620 -494 -620c-295 0 -498 189 -498 620v258c0 431 201 618 496 618c294 0 496 -187 496 -618v-258zM783 899c0 248 -72 334 -194 334c-123 0 -194 -86 -194 -334v-339c0 -251 73 -337 196 -337c122 0 192 86 192 337v339z" />
    <glyph glyph-name="one" unicode="1" horiz-adv-x="1178" 
d="M810 0h-301v1100l-342 -103v243l612 217h31v-1457z" />
    <glyph glyph-name="two" unicode="2" horiz-adv-x="1178" 
d="M1099 0h-1002v207l471 498c136 151 185 245 185 326c0 128 -65 203 -182 203c-128 0 -201 -103 -201 -240h-302c0 265 198 483 509 483s478 -156 478 -417c0 -197 -128 -359 -328 -566l-240 -251h612v-243z" />
    <glyph glyph-name="three" unicode="3" horiz-adv-x="1178" 
d="M839 748c160 -57 244 -177 244 -339c0 -273 -226 -429 -523 -429c-246 0 -500 130 -500 421h302c0 -102 89 -178 206 -178c134 0 214 80 214 191c0 152 -88 212 -231 212h-156v235h156c140 0 208 77 208 195c0 100 -61 178 -191 178c-99 0 -187 -59 -187 -154h-302
c0 243 217 397 481 397c297 0 501 -143 501 -416c0 -128 -82 -248 -222 -313z" />
    <glyph glyph-name="four" unicode="4" horiz-adv-x="1178" 
d="M1122 556v-243h-160v-313h-302v313h-588l-15 191l601 952h304v-900h160zM353 556h307v491l-20 -35z" />
    <glyph glyph-name="five" unicode="5" horiz-adv-x="1178" 
d="M134 715l85 741h825v-248h-578l-35 -305c37 21 120 55 216 55c283 0 446 -180 446 -490c0 -255 -159 -488 -496 -488c-253 0 -493 160 -498 429h300c11 -115 84 -186 197 -186c143 0 195 118 195 264c0 149 -71 247 -227 247c-104 0 -154 -41 -190 -78z" />
    <glyph glyph-name="six" unicode="6" horiz-adv-x="1178" 
d="M697 978c273 0 413 -223 413 -497c0 -284 -196 -501 -495 -501c-310 0 -519 230 -519 582v116c0 481 296 796 749 796h44v-249h-18c-262 0 -432 -132 -467 -365c70 70 169 118 293 118zM609 224c121 0 200 108 200 255c0 153 -80 257 -208 257c-99 0 -171 -57 -203 -126
v-90c0 -199 83 -296 211 -296z" />
    <glyph glyph-name="seven" unicode="7" horiz-adv-x="1178" 
d="M1093 1288l-558 -1288h-318l558 1213h-716v243h1034v-168z" />
    <glyph glyph-name="eight" unicode="8" horiz-adv-x="1178" 
d="M858 750c139 -67 227 -189 227 -350c0 -277 -210 -420 -495 -420c-283 0 -498 143 -498 420c0 161 89 284 229 351c-122 65 -197 178 -197 318c0 264 195 408 465 408c272 0 466 -144 466 -408c0 -141 -75 -254 -197 -319zM589 1234c-103 0 -163 -69 -163 -181
c0 -111 60 -185 164 -185c105 0 163 74 163 185c0 109 -60 181 -164 181zM590 223c118 0 193 76 193 200c0 126 -78 201 -195 201c-116 0 -193 -75 -193 -201c0 -124 77 -200 195 -200z" />
    <glyph glyph-name="nine" unicode="9" horiz-adv-x="1178" 
d="M578 1477c295 0 498 -229 498 -595v-107c0 -492 -268 -792 -749 -792h-23v253h19c279 0 423 112 447 340c-68 -64 -159 -107 -259 -107c-272 0 -426 205 -426 491c0 283 196 517 493 517zM587 699c90 0 155 51 187 115v124c0 199 -83 295 -197 295
c-122 0 -191 -135 -191 -271c0 -146 66 -263 201 -263z" />
    <glyph glyph-name="zero.frac" 
d="M693 972c0 -218 -128 -319 -310 -319c-184 0 -312 101 -312 319v169c0 218 127 323 310 323s312 -105 312 -323v-169zM483 1149c0 107 -39 146 -102 146c-62 0 -100 -39 -100 -146v-183c0 -110 38 -144 102 -144c61 0 100 34 100 144v183z" />
    <glyph glyph-name="four.frac" 
d="M705 994v-171h-85v-159h-211v159h-342l-13 139l355 491h211v-459h85zM254 994h155v204l-15 -23z" />
    <glyph glyph-name="five.frac" 
d="M85 1045l54 408h506v-165h-335l-20 -131c18 7 74 27 130 27c176 0 271 -91 271 -253c0 -140 -99 -278 -311 -278c-158 0 -312 91 -313 236h211c1 -50 41 -67 102 -67c81 0 101 52 101 109c0 67 -38 110 -117 110c-66 0 -96 -25 -112 -37z" />
    <glyph glyph-name="six.frac" 
d="M459 1191c162 0 252 -106 252 -264c0 -157 -131 -274 -312 -274c-187 0 -330 95 -330 324v50c0 327 226 444 469 444h35v-173h-11c-136 0 -251 -25 -277 -171c41 38 100 64 174 64zM392 821c63 0 108 49 108 109c0 67 -43 94 -109 94c-55 0 -94 -22 -112 -45v-40
c0 -82 38 -118 113 -118z" />
    <glyph glyph-name="seven.frac" 
d="M692 1336l-329 -672h-222l331 620h-421v169h641v-117z" />
    <glyph glyph-name="eight.frac" 
d="M565 1071c79 -37 128 -101 128 -188c0 -155 -130 -230 -310 -230c-178 0 -312 75 -312 230c0 87 50 151 130 188c-70 35 -112 94 -112 169c0 148 123 225 292 225c173 0 294 -77 294 -225c0 -75 -41 -134 -110 -169zM381 1296c-53 0 -81 -25 -81 -70c0 -44 28 -75 83 -75
c56 0 81 31 81 75c0 45 -26 70 -83 70zM383 822c60 0 101 31 101 82c0 53 -43 78 -103 78c-58 0 -100 -25 -100 -78c0 -51 42 -82 102 -82z" />
    <glyph glyph-name="nine.frac" 
d="M378 1465c170 0 311 -91 311 -325v-55c0 -341 -203 -434 -457 -434h-15v168h13c136 0 227 17 246 148c-40 -32 -92 -52 -146 -52c-161 0 -263 85 -263 262c0 157 131 288 311 288zM388 1070c46 0 76 18 92 36v78c0 81 -37 112 -102 112c-62 0 -100 -56 -100 -122
c0 -68 37 -104 110 -104z" />
    <glyph glyph-name="zero.sup" 
d="M693 308c0 -218 -128 -319 -310 -319c-184 0 -312 101 -312 319v169c0 218 127 323 310 323s312 -105 312 -323v-169zM483 485c0 107 -39 146 -102 146c-62 0 -100 -39 -100 -146v-183c0 -110 38 -144 102 -144c61 0 100 34 100 144v183z" />
    <glyph glyph-name="one.sup" 
d="M532 0h-209v543l-185 -39v161l375 122h19v-787z" />
    <glyph glyph-name="two.sup" 
d="M695 0h-622v142l286 255c72 63 104 124 104 154c0 49 -31 81 -93 81c-70 0 -104 -51 -104 -107h-211c0 150 118 276 305 276c199 0 313 -90 313 -250c0 -118 -71 -188 -221 -303l-102 -80h345v-168z" />
    <glyph glyph-name="three.sup" 
d="M547 405c92 -24 150 -78 150 -183c0 -148 -145 -233 -334 -233c-148 0 -316 66 -316 249h211c0 -41 45 -80 118 -80c78 0 110 41 110 85c0 66 -46 91 -122 91h-90v138h90c73 0 108 34 108 86c0 34 -26 74 -103 74c-54 0 -98 -21 -98 -57h-210c0 149 143 226 302 226
c189 0 319 -79 319 -227c0 -81 -54 -139 -135 -169z" />
    <glyph glyph-name="four.sup" 
d="M705 330v-171h-85v-159h-211v159h-342l-13 139l355 491h211v-459h85zM254 330h155v204l-15 -23z" />
    <glyph glyph-name="five.sup" 
d="M85 381l54 408h506v-165h-335l-20 -131c18 7 74 27 130 27c176 0 271 -91 271 -253c0 -140 -99 -278 -311 -278c-158 0 -312 91 -313 236h211c1 -50 41 -67 102 -67c81 0 101 52 101 109c0 67 -38 110 -117 110c-66 0 -96 -25 -112 -37z" />
    <glyph glyph-name="six.sup" 
d="M459 527c162 0 252 -106 252 -264c0 -157 -131 -274 -312 -274c-187 0 -330 95 -330 324v50c0 327 226 444 469 444h35v-173h-11c-136 0 -251 -25 -277 -171c41 38 100 64 174 64zM392 157c63 0 108 49 108 109c0 67 -43 94 -109 94c-55 0 -94 -22 -112 -45v-40
c0 -82 38 -118 113 -118z" />
    <glyph glyph-name="seven.sup" 
d="M692 672l-329 -672h-222l331 620h-421v169h641v-117z" />
    <glyph glyph-name="eight.sup" 
d="M565 407c79 -37 128 -101 128 -188c0 -155 -130 -230 -310 -230c-178 0 -312 75 -312 230c0 87 50 151 130 188c-70 35 -112 94 -112 169c0 148 123 225 292 225c173 0 294 -77 294 -225c0 -75 -41 -134 -110 -169zM381 632c-53 0 -81 -25 -81 -70c0 -44 28 -75 83 -75
c56 0 81 31 81 75c0 45 -26 70 -83 70zM383 158c60 0 101 31 101 82c0 53 -43 78 -103 78c-58 0 -100 -25 -100 -78c0 -51 42 -82 102 -82z" />
    <glyph glyph-name="nine.sup" 
d="M378 801c170 0 311 -91 311 -325v-55c0 -341 -203 -434 -457 -434h-15v168h13c136 0 227 17 246 148c-40 -32 -92 -52 -146 -52c-161 0 -263 85 -263 262c0 157 131 288 311 288zM388 406c46 0 76 18 92 36v78c0 81 -37 112 -102 112c-62 0 -100 -56 -100 -122
c0 -68 37 -104 110 -104z" />
    <glyph glyph-name="zero.tnum" horiz-adv-x="1228" 
 />
    <glyph glyph-name="one.tnum" horiz-adv-x="1149" 
 />
    <glyph glyph-name="two.tnum" horiz-adv-x="1154" 
 />
    <glyph glyph-name="three.tnum" horiz-adv-x="1111" 
 />
    <glyph glyph-name="four.tnum" horiz-adv-x="1191" 
 />
    <glyph glyph-name="five.tnum" horiz-adv-x="1131" 
 />
    <glyph glyph-name="six.tnum" horiz-adv-x="1178" 
d="M691 978c273 0 413 -223 413 -497c0 -284 -196 -501 -495 -501c-310 0 -519 230 -519 582v116c0 481 296 796 749 796h44v-249h-18c-262 0 -432 -132 -467 -365c70 70 169 118 293 118zM603 224c121 0 200 108 200 255c0 153 -80 257 -208 257c-99 0 -171 -57 -203 -126
v-90c0 -199 83 -296 211 -296z" />
    <glyph glyph-name="seven.tnum" horiz-adv-x="1070" 
 />
    <glyph glyph-name="eight.tnum" horiz-adv-x="1178" 
d="M858 750c139 -67 227 -189 227 -350c0 -277 -210 -420 -495 -420c-283 0 -498 143 -498 420c0 161 89 284 229 351c-122 65 -197 178 -197 318c0 264 195 408 465 408c272 0 466 -144 466 -408c0 -141 -75 -254 -197 -319zM589 1234c-103 0 -163 -69 -163 -181
c0 -111 60 -185 164 -185c105 0 163 74 163 185c0 109 -60 181 -164 181zM590 223c118 0 193 76 193 200c0 126 -78 201 -195 201c-116 0 -193 -75 -193 -201c0 -124 77 -200 195 -200z" />
    <glyph glyph-name="nine.tnum" horiz-adv-x="1189" 
 />
    <glyph glyph-name="uni2080" unicode="&#x2080;" 
d="M693 -53c0 -218 -128 -319 -310 -319c-184 0 -312 101 -312 319v169c0 218 127 323 310 323s312 -105 312 -323v-169zM483 124c0 107 -39 146 -102 146c-62 0 -100 -39 -100 -146v-183c0 -110 38 -144 102 -144c61 0 100 34 100 144v183z" />
    <glyph glyph-name="uni2081" unicode="&#x2081;" 
d="M532 -361h-209v543l-185 -39v161l375 122h19v-787z" />
    <glyph glyph-name="uni2082" unicode="&#x2082;" 
d="M695 -361h-622v142l286 255c72 63 104 124 104 154c0 49 -31 81 -93 81c-70 0 -104 -51 -104 -107h-211c0 150 118 276 305 276c199 0 313 -90 313 -250c0 -118 -71 -188 -221 -303l-102 -80h345v-168z" />
    <glyph glyph-name="uni2083" unicode="&#x2083;" 
d="M547 44c92 -24 150 -78 150 -183c0 -148 -145 -233 -334 -233c-148 0 -316 66 -316 249h211c0 -41 45 -80 118 -80c78 0 110 41 110 85c0 66 -46 91 -122 91h-90v138h90c73 0 108 34 108 86c0 34 -26 74 -103 74c-54 0 -98 -21 -98 -57h-210c0 149 143 226 302 226
c189 0 319 -79 319 -227c0 -81 -54 -139 -135 -169z" />
    <glyph glyph-name="uni2084" unicode="&#x2084;" 
d="M705 -31v-171h-85v-159h-211v159h-342l-13 139l355 491h211v-459h85zM254 -31h155v204l-15 -23z" />
    <glyph glyph-name="uni2085" unicode="&#x2085;" 
d="M85 20l54 408h506v-165h-335l-20 -131c18 7 74 27 130 27c176 0 271 -91 271 -253c0 -140 -99 -278 -311 -278c-158 0 -312 91 -313 236h211c1 -50 41 -67 102 -67c81 0 101 52 101 109c0 67 -38 110 -117 110c-66 0 -96 -25 -112 -37z" />
    <glyph glyph-name="uni2086" unicode="&#x2086;" 
d="M459 166c162 0 252 -106 252 -264c0 -157 -131 -274 -312 -274c-187 0 -330 95 -330 324v50c0 327 226 444 469 444h35v-173h-11c-136 0 -251 -25 -277 -171c41 38 100 64 174 64zM392 -204c63 0 108 49 108 109c0 67 -43 94 -109 94c-55 0 -94 -22 -112 -45v-40
c0 -82 38 -118 113 -118z" />
    <glyph glyph-name="uni2087" unicode="&#x2087;" 
d="M692 311l-329 -672h-222l331 620h-421v169h641v-117z" />
    <glyph glyph-name="uni2088" unicode="&#x2088;" 
d="M565 46c79 -37 128 -101 128 -188c0 -155 -130 -230 -310 -230c-178 0 -312 75 -312 230c0 87 50 151 130 188c-70 35 -112 94 -112 169c0 148 123 225 292 225c173 0 294 -77 294 -225c0 -75 -41 -134 -110 -169zM381 271c-53 0 -81 -25 -81 -70c0 -44 28 -75 83 -75
c56 0 81 31 81 75c0 45 -26 70 -83 70zM383 -203c60 0 101 31 101 82c0 53 -43 78 -103 78c-58 0 -100 -25 -100 -78c0 -51 42 -82 102 -82z" />
    <glyph glyph-name="uni2089" unicode="&#x2089;" 
d="M378 440c170 0 311 -91 311 -325v-55c0 -341 -203 -434 -457 -434h-15v168h13c136 0 227 17 246 148c-40 -32 -92 -52 -146 -52c-161 0 -263 85 -263 262c0 157 131 288 311 288zM388 45c46 0 76 18 92 36v78c0 81 -37 112 -102 112c-62 0 -100 -56 -100 -122
c0 -68 37 -104 110 -104z" />
    <glyph glyph-name="uni2070" unicode="&#x2070;" 
d="M693 975c0 -218 -128 -319 -310 -319c-184 0 -312 101 -312 319v169c0 218 127 323 310 323s312 -105 312 -323v-169zM483 1152c0 107 -39 146 -102 146c-62 0 -100 -39 -100 -146v-183c0 -110 38 -144 102 -144c61 0 100 34 100 144v183z" />
    <glyph glyph-name="uni00B9" unicode="&#xb9;" 
d="M532 667h-209v543l-185 -39v161l375 122h19v-787z" />
    <glyph glyph-name="uni00B2" unicode="&#xb2;" 
d="M695 667h-622v142l286 255c72 63 104 124 104 154c0 49 -31 81 -93 81c-70 0 -104 -51 -104 -107h-211c0 150 118 276 305 276c199 0 313 -90 313 -250c0 -118 -71 -188 -221 -303l-102 -80h345v-168z" />
    <glyph glyph-name="uni00B3" unicode="&#xb3;" 
d="M547 1072c92 -24 150 -78 150 -183c0 -148 -145 -233 -334 -233c-148 0 -316 66 -316 249h211c0 -41 45 -80 118 -80c78 0 110 41 110 85c0 66 -46 91 -122 91h-90v138h90c73 0 108 34 108 86c0 34 -26 74 -103 74c-54 0 -98 -21 -98 -57h-210c0 149 143 226 302 226
c189 0 319 -79 319 -227c0 -81 -54 -139 -135 -169z" />
    <glyph glyph-name="uni2074" unicode="&#x2074;" 
d="M705 997v-171h-85v-159h-211v159h-342l-13 139l355 491h211v-459h85zM254 997h155v204l-15 -23z" />
    <glyph glyph-name="uni2075" unicode="&#x2075;" 
d="M85 1048l54 408h506v-165h-335l-20 -131c18 7 74 27 130 27c176 0 271 -91 271 -253c0 -140 -99 -278 -311 -278c-158 0 -312 91 -313 236h211c1 -50 41 -67 102 -67c81 0 101 52 101 109c0 67 -38 110 -117 110c-66 0 -96 -25 -112 -37z" />
    <glyph glyph-name="uni2076" unicode="&#x2076;" 
d="M459 1194c162 0 252 -106 252 -264c0 -157 -131 -274 -312 -274c-187 0 -330 95 -330 324v50c0 327 226 444 469 444h35v-173h-11c-136 0 -251 -25 -277 -171c41 38 100 64 174 64zM392 824c63 0 108 49 108 109c0 67 -43 94 -109 94c-55 0 -94 -22 -112 -45v-40
c0 -82 38 -118 113 -118z" />
    <glyph glyph-name="uni2077" unicode="&#x2077;" 
d="M692 1339l-329 -672h-222l331 620h-421v169h641v-117z" />
    <glyph glyph-name="uni2078" unicode="&#x2078;" 
d="M565 1074c79 -37 128 -101 128 -188c0 -155 -130 -230 -310 -230c-178 0 -312 75 -312 230c0 87 50 151 130 188c-70 35 -112 94 -112 169c0 148 123 225 292 225c173 0 294 -77 294 -225c0 -75 -41 -134 -110 -169zM381 1299c-53 0 -81 -25 -81 -70c0 -44 28 -75 83 -75
c56 0 81 31 81 75c0 45 -26 70 -83 70zM383 825c60 0 101 31 101 82c0 53 -43 78 -103 78c-58 0 -100 -25 -100 -78c0 -51 42 -82 102 -82z" />
    <glyph glyph-name="uni2079" unicode="&#x2079;" 
d="M378 1468c170 0 311 -91 311 -325v-55c0 -341 -203 -434 -457 -434h-15v168h13c136 0 227 17 246 148c-40 -32 -92 -52 -146 -52c-161 0 -263 85 -263 262c0 157 131 288 311 288zM388 1073c46 0 76 18 92 36v78c0 81 -37 112 -102 112c-62 0 -100 -56 -100 -122
c0 -68 37 -104 110 -104z" />
    <glyph glyph-name="fraction" unicode="&#x2044;" horiz-adv-x="911" 
d="M172 109l-145 77l711 1138l145 -77z" />
    <glyph glyph-name="zero.smcp" horiz-adv-x="1067" 
d="M990 458c0 -324 -187 -474 -455 -474c-270 0 -458 150 -458 474v245c0 322 186 478 456 478c268 0 457 -156 457 -478v-245zM688 715c0 162 -59 223 -155 223c-97 0 -154 -61 -154 -223v-267c0 -168 59 -221 156 -221c95 0 153 53 153 221v267z" />
    <glyph glyph-name="one.smcp" horiz-adv-x="1067" 
d="M751 0h-301v810l-301 -64v233l574 182h28v-1161z" />
    <glyph glyph-name="two.smcp" horiz-adv-x="1067" 
d="M994 0h-914v204l422 380c111 96 157 185 157 231c0 75 -48 124 -142 124c-108 0 -161 -76 -161 -163h-302c0 222 172 406 450 406c290 0 457 -134 457 -366c0 -174 -105 -276 -320 -445l-165 -128h518v-243z" />
    <glyph glyph-name="three.smcp" horiz-adv-x="1067" 
d="M774 599c136 -37 219 -120 219 -272c0 -218 -211 -343 -488 -343c-218 0 -462 98 -462 364h303c0 -63 68 -121 178 -121c116 0 168 60 168 130c0 99 -71 137 -188 137h-131v201h131c113 0 167 52 167 130c0 55 -41 114 -157 114c-82 0 -149 -32 -149 -89h-302
c0 218 207 332 442 332c277 0 468 -117 468 -334c0 -118 -78 -204 -199 -249z" />
    <glyph glyph-name="four.smcp" horiz-adv-x="1067" 
d="M1014 481v-245h-133v-236h-302v236h-508l-18 199l526 729v1h302v-684h133zM341 481h238v312l-19 -30z" />
    <glyph glyph-name="five.smcp" horiz-adv-x="1067" 
d="M100 564l80 601h742v-238h-496l-30 -200c28 11 110 40 193 40c260 0 399 -136 399 -375c0 -206 -144 -408 -455 -408c-233 0 -456 132 -460 347h303c3 -78 64 -104 157 -104c121 0 154 78 154 166c0 102 -59 167 -178 167c-99 0 -142 -36 -169 -55z" />
    <glyph glyph-name="six.smcp" horiz-adv-x="1067" 
d="M644 778c240 0 371 -159 371 -390c0 -232 -189 -404 -457 -404c-277 0 -483 145 -483 476v75c0 473 320 654 688 654h49v-247h-16c-208 0 -375 -44 -412 -261c62 57 149 97 260 97zM549 226c96 0 164 74 164 165c0 102 -64 147 -166 147c-82 0 -142 -36 -170 -72v-57
c0 -127 60 -183 172 -183z" />
    <glyph glyph-name="seven.smcp" horiz-adv-x="1067" 
d="M990 996l-489 -996h-319l491 922h-626v243h943v-169z" />
    <glyph glyph-name="eight.smcp" horiz-adv-x="1067" 
d="M799 600c118 -54 192 -149 192 -278c0 -227 -193 -338 -457 -338c-260 0 -458 111 -458 338c0 130 75 225 193 279c-103 52 -165 139 -165 250c0 217 180 331 428 331c253 0 431 -114 431 -331c0 -112 -61 -198 -164 -251zM532 939c-81 0 -126 -40 -126 -108
s45 -115 128 -115c86 0 127 47 127 115c0 69 -43 108 -129 108zM534 227c93 0 155 48 155 125c0 81 -64 120 -157 120c-90 0 -153 -39 -153 -120c0 -77 63 -125 155 -125z" />
    <glyph glyph-name="nine.smcp" horiz-adv-x="1067" 
d="M527 1182c253 0 457 -140 457 -479v-80c0 -492 -288 -641 -672 -641h-23v241h19c207 0 341 33 369 226c-60 -48 -137 -78 -219 -78c-239 0 -387 130 -387 388c0 230 189 423 456 423zM539 595c71 0 119 28 143 58v112c0 124 -58 173 -155 173c-96 0 -154 -82 -154 -183
c0 -103 56 -160 166 -160z" />
    <glyph glyph-name="asterisk" unicode="*" horiz-adv-x="935" 
d="M345 960l-318 90l61 184l313 -128l-21 350h200l-21 -357l305 125l60 -186l-322 -89l212 -266l-162 -115l-183 293l-181 -283l-163 110z" />
    <glyph glyph-name="backslash" unicode="\" horiz-adv-x="867" 
d="M-5 1456h310l608 -1581h-311z" />
    <glyph glyph-name="periodcentered" unicode="&#xb7;" horiz-adv-x="628" 
d="M309 853c103 0 170 -69 170 -160s-67 -160 -170 -160c-102 0 -169 69 -169 160s67 160 169 160z" />
    <glyph glyph-name="bullet" unicode="&#x2022;" horiz-adv-x="742" 
d="M135 765c0 137 95 235 241 235c151 0 243 -98 243 -235v-37c0 -137 -92 -232 -241 -232c-148 0 -243 95 -243 232v37z" />
    <glyph glyph-name="colon" unicode=":" horiz-adv-x="588" 
d="M292 1120c103 0 170 -69 170 -160s-67 -160 -170 -160c-102 0 -169 69 -169 160s67 160 169 160zM292 309c103 0 170 -69 170 -160s-67 -160 -170 -160c-102 0 -169 69 -169 160s67 160 169 160z" />
    <glyph glyph-name="comma" unicode="," horiz-adv-x="514" 
d="M393 46c0 -155 -84 -323 -200 -422l-155 80c47 90 105 176 105 325v220h251z" />
    <glyph glyph-name="ellipsis" unicode="&#x2026;" horiz-adv-x="1534" 
d="M301 309c103 0 170 -69 170 -160s-67 -160 -170 -160c-102 0 -169 69 -169 160s67 160 169 160zM779 309c103 0 170 -69 170 -160s-67 -160 -170 -160c-102 0 -169 69 -169 160s67 160 169 160zM1249 309c103 0 170 -69 170 -160s-67 -160 -170 -160
c-102 0 -169 69 -169 160s67 160 169 160z" />
    <glyph glyph-name="exclam" unicode="!" horiz-adv-x="560" 
d="M412 453h-249l-36 1003h321zM287 301c102 0 169 -69 169 -159s-67 -159 -169 -159s-168 69 -168 159s66 159 168 159z" />
    <glyph glyph-name="exclamdown" unicode="&#xa1;" horiz-adv-x="588" 
d="M296 784c-102 0 -169 69 -169 159s67 159 169 159s168 -69 168 -159s-66 -159 -168 -159zM171 633h249l36 -1003h-321z" />
    <glyph glyph-name="numbersign" unicode="#" horiz-adv-x="1213" 
d="M1171 863h-253l-47 -276h225v-177h-256l-71 -410h-187l71 410h-184l-71 -410h-188l71 410h-226v177h257l47 276h-228v177h259l72 416h187l-72 -416h185l72 416h187l-72 -416h222v-177zM684 587l47 276h-184l-48 -276h185z" />
    <glyph glyph-name="period" unicode="." horiz-adv-x="602" 
d="M293 309c103 0 170 -69 170 -160s-67 -160 -170 -160c-102 0 -169 69 -169 160s67 160 169 160z" />
    <glyph glyph-name="question" unicode="?" horiz-adv-x="1026" 
d="M346 453c1 178 36 280 149 379c93 79 156 145 156 237c0 108 -51 162 -149 162c-80 0 -155 -49 -157 -168h-303c4 286 203 413 460 413c283 0 452 -139 452 -393c0 -175 -113 -271 -244 -393c-76 -68 -97 -134 -99 -237h-265zM483 306c102 0 168 -69 168 -159
s-66 -159 -168 -159s-168 69 -168 159s66 159 168 159z" />
    <glyph glyph-name="questiondown" unicode="&#xbf;" horiz-adv-x="1026" 
d="M548 785c-102 0 -168 69 -168 159s66 159 168 159s168 -69 168 -159s-66 -159 -168 -159zM676 638c0 -178 -31 -275 -144 -375c-91 -85 -159 -147 -159 -254c0 -102 57 -149 145 -149s161 50 163 168h303c-4 -286 -203 -413 -460 -413c-284 0 -453 138 -453 393
c0 175 120 279 250 401c76 68 89 126 91 229h264z" />
    <glyph glyph-name="quotedbl" unicode="&#x22;" horiz-adv-x="655" 
d="M263 1399l-40 -419h-169v557h209v-138zM596 1399l-41 -419h-168v557h209v-138z" />
    <glyph glyph-name="quotesingle" unicode="'" horiz-adv-x="328" 
d="M278 1384l-31 -408h-189v560h220v-152z" />
    <glyph glyph-name="semicolon" unicode=";" horiz-adv-x="551" 
d="M276 1120c103 0 170 -69 170 -160s-67 -160 -170 -160c-102 0 -169 69 -169 160s67 160 169 160zM416 46c0 -155 -84 -323 -200 -422l-155 80c47 90 105 176 105 325v220h251z" />
    <glyph glyph-name="slash" unicode="/" horiz-adv-x="754" 
d="M204 -125h-221l526 1581h222z" />
    <glyph glyph-name="underscore" unicode="_" horiz-adv-x="912" 
d="M910 -236h-909v236h909v-236z" />
    <glyph glyph-name="braceleft" unicode="{" horiz-adv-x="674" 
d="M489 106c0 -140 32 -256 149 -298l-58 -168c-275 77 -360 256 -360 466v203c0 123 -51 202 -174 202v215c123 0 174 79 174 203v203c0 210 85 388 360 465l58 -167c-117 -42 -149 -158 -149 -298v-203c0 -132 -55 -247 -180 -310c125 -63 180 -178 180 -310v-203z" />
    <glyph glyph-name="braceright" unicode="}" horiz-adv-x="674" 
d="M454 929c0 -124 51 -203 174 -203v-215c-123 0 -174 -79 -174 -202v-203c0 -210 -85 -389 -360 -466l-58 168c117 42 150 158 150 298v203c0 134 56 248 185 310c-129 62 -185 176 -185 310v203c0 140 -33 256 -150 298l58 167c275 -77 360 -255 360 -465v-203z" />
    <glyph glyph-name="bracketleft" unicode="[" horiz-adv-x="572" 
d="M556 1467h-136v-1579h136v-231h-439v2042h439v-232z" />
    <glyph glyph-name="bracketright" unicode="]" horiz-adv-x="572" 
d="M14 1699h439v-2042h-439v231h137v1579h-137v232z" />
    <glyph glyph-name="parenleft" unicode="(" horiz-adv-x="720" 
d="M124 592c0 560 268 920 499 1021l57 -160c-150 -112 -305 -374 -305 -859v-29c0 -484 155 -747 305 -860l-57 -158c-231 100 -499 461 -499 1020v25z" />
    <glyph glyph-name="parenright" unicode=")" horiz-adv-x="722" 
d="M614 567c0 -537 -276 -920 -515 -1020l-59 158c149 111 306 376 306 860v29c0 485 -160 749 -306 860l59 159c239 -101 515 -484 515 -1021v-25z" />
    <glyph glyph-name="emdash" unicode="&#x2014;" horiz-adv-x="1557" 
d="M1491 589h-1389v247h1389v-247z" />
    <glyph glyph-name="endash" unicode="&#x2013;" horiz-adv-x="1287" 
d="M1191 589h-1041v247h1041v-247z" />
    <glyph glyph-name="hyphen" unicode="-" horiz-adv-x="828" 
d="M694 503h-572v245h572v-245z" />
    <glyph glyph-name="uni00AD" unicode="&#xad;" horiz-adv-x="600" 
d="M694 503h-572v245h572v-245z" />
    <glyph glyph-name="guillemotleft" unicode="&#xab;" horiz-adv-x="1031" 
d="M543 921l-237 -399l237 -400h-192l-278 390v19l278 390h192zM936 921l-237 -399l237 -400h-192l-278 390v19l278 390h192z" />
    <glyph glyph-name="guillemotright" unicode="&#xbb;" horiz-adv-x="1031" 
d="M554 511l-279 -390h-191l237 400l-237 399h191l279 -390v-19zM673 920l279 -390v-19l-279 -390h-191l237 400l-237 399h191z" />
    <glyph glyph-name="guilsinglleft" unicode="&#x2039;" horiz-adv-x="642" 
d="M578 921l-237 -399l237 -400h-192l-278 390v19l278 390h192z" />
    <glyph glyph-name="guilsinglright" unicode="&#x203a;" horiz-adv-x="619" 
d="M271 920l279 -390v-19l-279 -390h-191l237 400l-237 399h191z" />
    <glyph glyph-name="quotedblbase" unicode="&#x201e;" horiz-adv-x="839" 
d="M393 65c0 -139 -76 -302 -175 -392l-147 79c47 84 79 178 79 313v201h243v-201zM741 65c0 -139 -84 -302 -183 -392l-147 79c47 84 87 178 87 313v201h244z" />
    <glyph glyph-name="quotedblleft" unicode="&#x201c;" horiz-adv-x="842" 
d="M113 1201c0 132 85 286 183 372l139 -80c-47 -78 -88 -166 -88 -292v-155h-234v155zM458 1201c0 132 85 286 183 372l139 -80c-47 -78 -88 -166 -88 -292v-155h-234v155z" />
    <glyph glyph-name="quotedblright" unicode="&#x201d;" horiz-adv-x="849" 
d="M397 1378c0 -132 -85 -286 -183 -372l-139 80c47 78 88 166 88 292v158h234v-158zM748 1378c0 -132 -85 -286 -183 -372l-139 80c47 78 88 166 88 292v158h234v-158z" />
    <glyph glyph-name="quoteleft" unicode="&#x2018;" horiz-adv-x="488" 
d="M105 1201c0 132 85 286 183 372l139 -80c-47 -78 -88 -166 -88 -292v-155h-234v155z" />
    <glyph glyph-name="quoteright" unicode="&#x2019;" horiz-adv-x="478" 
d="M383 1378c0 -132 -85 -286 -183 -372l-139 80c47 78 88 166 88 292v158h234v-158z" />
    <glyph glyph-name="quotesinglbase" unicode="&#x201a;" horiz-adv-x="521" 
d="M393 65c0 -132 -85 -287 -183 -372l-139 79c47 78 79 166 79 293v172h243v-172z" />
    <glyph glyph-name="uni05F3" unicode="&#x5f3;" horiz-adv-x="464" 
d="M208 861l-189 74c63 87 104 207 104 308v207h280l-1 -179c0 -148 -81 -314 -194 -410z" />
    <glyph glyph-name="uni05F4" unicode="&#x5f4;" horiz-adv-x="935" 
d="M234 861l-189 74c63 87 104 207 104 308v207h280l-1 -179c-1 -148 -81 -314 -194 -410zM661 861l-190 74c63 87 105 207 105 308v207h280l-1 -179c-1 -148 -82 -314 -194 -410z" />
    <glyph glyph-name="uni05BE" unicode="&#x5be;" horiz-adv-x="591" 
d="M531 955h-471v244h471v-244z" />
    <glyph glyph-name="space" unicode=" " horiz-adv-x="510" 
 />
    <glyph glyph-name="uni200F" unicode="&#x200f;" horiz-adv-x="0" 
d="M-715 1371h435v-1571h-212v1375h-221l140 -161h-232l-205 259l203 262h232z" />
    <glyph glyph-name="uni200E" unicode="&#x200e;" horiz-adv-x="0" 
d="M-360 1535l204 -262l-205 -259h-233l140 161h-221v-1375h-212v1571h436l-141 164h232z" />
    <glyph glyph-name="uni200D" unicode="&#x200d;" horiz-adv-x="0" 
d="M-255 1397l-173 -177l173 -177l-156 -149l-62 63v-1157h-212v1157l-62 -63l-156 149l173 177l-173 177l156 149l168 -172l168 172z" />
    <glyph glyph-name="uni200C" unicode="&#x200c;" horiz-adv-x="0" 
d="M-684 1192h212v-1392h-212v1392z" />
    <glyph glyph-name=".null" horiz-adv-x="0" 
 />
    <glyph glyph-name="Euro" unicode="&#x20ac;" horiz-adv-x="1178" 
d="M873 233c67 0 130 9 187 30l38 -252c-80 -19 -168 -30 -258 -30c-332 0 -573 179 -584 532h-167v155h167v124h-167v154h169c25 348 266 529 605 529c79 0 158 -12 235 -31l-38 -253c-52 18 -119 32 -180 32c-178 0 -288 -79 -306 -277h326v-154h-329v-124h329v-155h-329
c8 -217 127 -280 302 -280z" />
    <glyph glyph-name="cent" unicode="&#xa2;" horiz-adv-x="1187" 
d="M596 223c103 0 172 60 173 156h283c-1 -203 -148 -353 -350 -390v-234h-200v233c-269 43 -402 263 -402 540v26c0 277 134 498 402 541v223h200v-224c211 -37 349 -188 350 -419h-283c-1 102 -61 184 -175 184c-160 0 -192 -145 -192 -305v-26c0 -164 30 -305 194 -305z
" />
    <glyph glyph-name="currency" unicode="&#xa4;" horiz-adv-x="1413" 
d="M1303 608c0 -130 -36 -250 -98 -349l139 -141l-142 -145l-131 135c-101 -81 -226 -128 -362 -128s-261 46 -361 126l-129 -132l-141 144l136 138c-64 99 -101 220 -101 352c0 138 40 263 109 365l-144 147l141 144l142 -145c98 73 218 115 348 115s251 -43 349 -117
l144 148l142 -145l-147 -150c67 -101 106 -225 106 -362zM709 171c226 0 409 191 409 437s-183 436 -409 436c-228 0 -410 -190 -410 -436s182 -437 410 -437z" />
    <glyph glyph-name="dollar" unicode="$" horiz-adv-x="1178" 
d="M647 858c258 -105 437 -208 437 -471c0 -235 -158 -378 -399 -404v-199h-159v199c-223 24 -436 155 -436 478h302c0 -185 105 -241 212 -241c120 0 179 71 179 165c0 110 -54 161 -199 217c-262 102 -440 202 -440 468c0 227 160 380 402 404v213h159v-216
c232 -34 381 -201 381 -465h-301c0 157 -71 230 -175 230c-115 0 -164 -74 -164 -168c0 -95 47 -148 201 -210z" />
    <glyph glyph-name="uni20AA" unicode="&#x20aa;" horiz-adv-x="1926" 
d="M133 0v1201h1174v-483c0 -71 -16 -182 -51 -259l-250 -40l-15 12c17 79 28 180 28 259v259h-597v-949h-289zM589 0v767h288v-514l271 -1c185 -1 327 102 327 292v657h288v-650c3 -345 -225 -551 -625 -551h-549z" />
    <glyph glyph-name="sterling" unicode="&#xa3;" horiz-adv-x="1221" 
d="M526 253h639v-253h-1062v253h96c61 15 68 94 68 170l-5 148h-162v245h155l-7 223c0 276 182 436 454 436c295 0 459 -168 459 -420h-298c0 126 -73 168 -159 168c-84 0 -143 -62 -143 -184l9 -223h309v-245h-299l5 -129c0 -77 -17 -139 -59 -189z" />
    <glyph glyph-name="yen" unicode="&#xa5;" horiz-adv-x="1101" 
d="M1090 1456l-316 -714h213v-180h-284v-110h284v-179h-284v-273h-313v273h-305v179h305v110h-305v180h244l-318 714h325l216 -551l214 551h324z" />
    <glyph glyph-name="plus" unicode="+" horiz-adv-x="1112" 
d="M1052 820v-272h-355v-402h-285v402h-358v272h358v386h285v-386h355z" />
    <glyph glyph-name="minus" unicode="&#x2212;" horiz-adv-x="1134" 
d="M1012 589h-868v247h868v-247z" />
    <glyph glyph-name="multiply" unicode="&#xd7;" horiz-adv-x="1087" 
d="M1018 996l-304 -309l304 -310l-177 -175l-301 307l-301 -307l-177 175l304 310l-304 309l177 175l301 -307l301 307z" />
    <glyph glyph-name="divide" unicode="&#xf7;" horiz-adv-x="1168" 
d="M579 1245c103 0 170 -66 170 -157c0 -90 -67 -155 -170 -155c-102 0 -169 65 -169 155c0 91 67 157 169 157zM1095 568h-1032v236h1032v-236zM579 434c103 0 170 -65 170 -156s-67 -156 -170 -156c-102 0 -169 65 -169 156s67 156 169 156z" />
    <glyph glyph-name="equal" unicode="=" horiz-adv-x="1180" 
d="M1037 737h-902v245h902v-245zM1037 302h-902v245h902v-245z" />
    <glyph glyph-name="greater" unicode="&#x3e;" horiz-adv-x="1056" 
d="M118 1103l873 -363v-247l-873 -364v289l571 201l-571 195v289z" />
    <glyph glyph-name="less" unicode="&#x3c;" horiz-adv-x="1043" 
d="M920 1104v-290l-564 -198l564 -195v-291l-867 363v248z" />
    <glyph glyph-name="plusminus" unicode="&#xb1;" horiz-adv-x="1101" 
d="M681 955h323v-253h-323v-358h-264v358h-329v253h329v334h264v-334zM110 1v247h868v-247h-868z" />
    <glyph glyph-name="asciitilde" unicode="~" horiz-adv-x="1320" 
d="M1215 796c0 -259 -138 -424 -333 -424c-107 0 -182 41 -277 132c-55 53 -100 82 -154 82c-76 0 -127 -76 -127 -176l-221 3c0 262 136 418 332 418c106 0 190 -44 278 -131c55 -54 101 -81 152 -81c77 0 130 77 130 178z" />
    <glyph glyph-name="logicalnot" unicode="&#xac;" horiz-adv-x="1128" 
d="M126 805h835v-431h-200v260h-635v171z" />
    <glyph glyph-name="percent" unicode="%" horiz-adv-x="1515" 
d="M94 1176c0 165 111 301 318 301c211 0 318 -136 318 -301v-77c0 -163 -107 -299 -316 -299s-320 136 -320 299v77zM473 109l-146 77l711 1138l146 -77zM293 1099c0 -66 39 -126 121 -126c80 0 118 60 118 126v77c0 68 -39 128 -120 128c-80 0 -119 -60 -119 -128v-77z
M789 357c0 164 111 300 318 300c212 0 319 -136 319 -300v-77c0 -164 -107 -300 -317 -300c-209 0 -320 136 -320 300v77zM988 280c0 -67 49 -127 121 -127c95 0 118 60 118 127v77c0 67 -39 127 -120 127c-80 0 -119 -60 -119 -127v-77z" />
    <glyph glyph-name="at" unicode="@" horiz-adv-x="1834" 
d="M964 1414c523 0 807 -351 785 -872c-10 -277 -134 -563 -441 -563c-113 0 -199 52 -242 142c-66 -92 -156 -139 -262 -139c-195 0 -314 179 -289 451c38 339 231 557 470 557c155 0 229 -52 310 -109l-52 -581c-14 -125 47 -154 103 -154c126 0 211 168 218 388
c21 430 -170 714 -604 714c-408 0 -657 -337 -678 -787c-22 -483 205 -734 613 -734c116 0 247 29 331 67l38 -158c-93 -60 -249 -89 -373 -89c-531 0 -833 319 -811 914c24 547 361 953 884 953zM875 166c47 0 118 33 164 167l41 464c-23 7 -48 11 -76 11
c-155 0 -234 -131 -259 -375c-15 -174 31 -267 130 -267z" />
    <glyph glyph-name="ampersand" unicode="&#x26;" horiz-adv-x="1354" 
d="M1328 0h-341l-73 84c-111 -71 -227 -105 -371 -105c-293 0 -475 172 -475 413c0 169 107 267 261 376c-84 115 -135 212 -135 322c0 230 158 387 401 387c228 0 374 -158 374 -344c0 -134 -82 -240 -195 -321l-91 -65l243 -281c37 72 59 158 59 253h255
c0 -179 -37 -339 -131 -465zM594 1234c-88 0 -133 -63 -133 -140c0 -58 34 -117 85 -183l74 48c83 53 100 100 100 154c0 59 -46 121 -126 121zM560 223c65 0 129 18 187 52l-278 320l-18 -13c-67 -60 -81 -115 -81 -171c0 -110 78 -188 190 -188z" />
    <glyph glyph-name="paragraph" unicode="&#xb6;" horiz-adv-x="1003" 
d="M652 0v520h-83c-318 0 -492 198 -492 468c0 268 174 468 492 468h305v-1456h-222z" />
    <glyph glyph-name="section" unicode="&#xa7;" horiz-adv-x="1291" 
d="M1026 218c88 -67 134 -157 134 -290c0 -242 -205 -375 -520 -375c-272 0 -547 96 -547 415l302 1c0 -141 125 -172 245 -172c143 0 219 50 219 130c0 82 -64 123 -285 184c-299 79 -480 181 -480 421c0 121 58 214 160 272c-88 67 -136 156 -136 289
c0 232 206 383 523 383c324 0 523 -151 523 -426h-302c0 103 -75 183 -221 183c-155 0 -220 -62 -220 -138c0 -92 52 -125 281 -185c307 -78 482 -181 482 -421c0 -123 -57 -213 -158 -271zM396 566c0 -101 51 -135 281 -203c49 -13 94 -26 136 -40c48 29 74 76 74 133
c0 90 -66 136 -288 202c-48 14 -93 27 -135 42c-47 -29 -68 -77 -68 -134z" />
    <glyph glyph-name="copyright" unicode="&#xa9;" horiz-adv-x="1607" 
d="M796 1476c391 0 710 -324 710 -747s-319 -749 -710 -749c-392 0 -710 326 -710 749s318 747 710 747zM796 105c324 0 587 271 587 624s-263 622 -587 622c-325 0 -588 -269 -588 -622s263 -624 588 -624zM1117 596c0 -210 -129 -314 -335 -314c-215 0 -349 157 -349 387
v119c0 229 134 387 349 387c206 0 336 -105 336 -314h-156c0 128 -62 179 -180 179c-128 0 -194 -104 -194 -251v-120c0 -149 66 -252 194 -252c118 0 179 49 179 179h156z" />
    <glyph glyph-name="registered" unicode="&#xae;" horiz-adv-x="1607" 
d="M796 1476c391 0 710 -324 710 -747s-319 -749 -710 -749c-392 0 -710 326 -710 749s318 747 710 747zM796 105c324 0 587 271 587 624s-263 622 -587 622c-325 0 -588 -269 -588 -622s263 -624 588 -624zM1104 515v-56c0 -50 4 -97 17 -127v-16h-155
c-13 34 -13 115 -13 144v54c0 94 -39 139 -143 139h-158v-337h-151v850h281c198 0 325 -91 325 -263c0 -76 -38 -132 -110 -172c79 -43 107 -121 107 -216zM786 787c91 0 171 39 171 116c0 97 -45 130 -175 130h-130v-246h134z" />
    <glyph glyph-name="degree" unicode="&#xb0;" horiz-adv-x="801" 
d="M401 1476c148 0 270 -125 270 -278c0 -152 -122 -273 -270 -273c-150 0 -275 121 -275 273c0 153 125 278 275 278zM401 1074c68 0 121 53 121 124c0 73 -53 128 -121 128s-126 -55 -126 -128c0 -71 58 -124 126 -124z" />
    <glyph glyph-name="bar" unicode="|" horiz-adv-x="520" 
d="M351 -270h-178v1726h178v-1726z" />
    <glyph glyph-name="brokenbar" unicode="&#xa6;" horiz-adv-x="519" 
d="M394 698h-268v758h268v-758zM126 -270v795h268v-795h-268z" />
    <glyph glyph-name="asciicircum" unicode="^" horiz-adv-x="901" 
d="M861 729h-236l-173 455l-173 -455h-236l299 727h220z" />
    <glyph glyph-name="ampersand.smcp" horiz-adv-x="1347" 
d="M1256 0h-326l-55 55c-101 -51 -218 -75 -338 -75c-279 0 -453 133 -453 317c0 134 81 214 212 296l24 15c-87 91 -141 166 -141 284c0 150 130 289 360 289c227 0 371 -119 371 -307c0 -110 -75 -200 -178 -266l-54 -35l200 -198c33 52 50 115 50 186h256
c0 -160 -50 -276 -126 -364zM436 861c0 -42 33 -81 81 -129l38 24c82 50 95 78 95 117c0 40 -39 81 -107 81c-71 0 -107 -43 -107 -93zM540 221c55 0 105 7 149 19l-209 208l-25 -16c-55 -35 -69 -72 -69 -103c0 -67 57 -108 154 -108z" />
    <glyph glyph-name="dollar.smcp" horiz-adv-x="1103" 
d="M589 711c295 -64 439 -166 439 -386c0 -195 -148 -315 -380 -337v-225h-160v225c-222 21 -430 136 -430 386h302c0 -120 71 -169 223 -169c123 0 159 63 159 110c0 72 -50 113 -215 152c-297 69 -429 155 -429 368c0 189 161 324 390 344v216h160v-220
c229 -28 383 -154 383 -358h-302c0 75 -65 143 -181 143c-115 0 -165 -63 -165 -113c0 -63 54 -98 206 -136z" />
    <glyph glyph-name="Euro.smcp" horiz-adv-x="1031" 
d="M736 227c78 0 132 13 200 27l22 -239c-75 -20 -138 -31 -222 -31c-284 0 -471 145 -512 384h-152v174h143v72h-143v175h153c43 248 227 395 509 395c85 0 146 -10 226 -33l-22 -239c-72 21 -125 29 -204 29c-114 0 -178 -53 -203 -152h346v-175h-359v-72h359v-174h-347
c25 -94 91 -141 206 -141z" />
    <glyph glyph-name="sterling.smcp" horiz-adv-x="1183" 
d="M436 244h662v-244h-961v244h10c66 17 82 127 81 229h-161v174h156l-2 82c-9 286 159 452 425 452c292 0 435 -168 435 -418h-302c0 130 -52 177 -131 177c-86 0 -133 -75 -125 -211l4 -82h361v-174h-354c-3 -90 -37 -167 -98 -229z" />
    <glyph glyph-name="yen.smcp" horiz-adv-x="937" 
d="M930 1165l-223 -531h175v-175h-248l-18 -42v-25h266v-173h-266v-219h-302v219h-267v173h267v39l-12 28h-255v175h182l-223 531h317l145 -432l146 432h316z" />
    <glyph glyph-name="uniFB29" unicode="&#xfb29;" horiz-adv-x="1104" 
d="M410 1206h283v-395h358v-260h-998v260h357v395z" />
    <glyph glyph-name="gravecomb" unicode="&#x300;" horiz-adv-x="0" 
d="M-376 1225h-247l-277 311h326z" />
    <glyph glyph-name="acutecomb" unicode="&#x301;" horiz-adv-x="0" 
d="M-488 1536h326l-278 -311h-245z" />
    <glyph glyph-name="tildecomb" unicode="&#x303;" horiz-adv-x="0" 
d="M-173 1527c0 -146 -96 -268 -229 -268c-126 0 -171 85 -275 85c-46 0 -82 -32 -82 -93l-173 9c0 143 95 270 228 270c106 0 176 -85 275 -85c46 0 84 32 84 94z" />
    <glyph glyph-name="acute" unicode="&#xb4;" horiz-adv-x="683" 
d="M295 1536h326l-277 -311h-245z" />
    <glyph glyph-name="cedilla" unicode="&#xb8;" horiz-adv-x="554" 
d="M353 8l-11 -59c74 -13 150 -58 150 -173c0 -145 -122 -242 -356 -242l-7 174c62 0 107 23 107 80c0 53 -42 69 -141 76l31 144h227z" />
    <glyph glyph-name="circumflex" unicode="&#x2c6;" horiz-adv-x="1021" 
d="M901 1256v-12h-238l-156 141l-155 -141h-235v16l303 276h174z" />
    <glyph glyph-name="dieresis" unicode="&#xa8;" horiz-adv-x="971" 
d="M236 1495c81 0 142 -57 142 -130c0 -72 -61 -129 -142 -129s-141 57 -141 129c0 73 60 130 141 130zM732 1494c81 0 142 -56 142 -129s-61 -129 -142 -129s-142 56 -142 129s61 129 142 129z" />
    <glyph glyph-name="grave" unicode="`" horiz-adv-x="682" 
d="M577 1225h-247l-277 311h326z" />
    <glyph glyph-name="macron" unicode="&#xaf;" horiz-adv-x="1036" 
d="M863 1287h-691v169h691v-169z" />
    <glyph glyph-name="ring" unicode="&#x2da;" horiz-adv-x="680" 
d="M343 1518c129 0 223 -93 223 -204c0 -112 -94 -201 -223 -201s-223 89 -223 201c0 111 94 204 223 204zM343 1208c65 0 107 47 107 106c0 58 -42 108 -107 108c-66 0 -107 -50 -107 -108s41 -106 107 -106z" />
    <glyph glyph-name="tilde" unicode="&#x2dc;" horiz-adv-x="986" 
d="M875 1527c0 -146 -96 -268 -229 -268c-126 0 -171 85 -275 85c-46 0 -82 -32 -82 -93l-173 9c0 143 95 270 228 270c106 0 176 -85 275 -85c46 0 84 32 84 94z" />
    <glyph glyph-name="uni05B0" unicode="&#x5b0;" horiz-adv-x="0" 
d="M634 -341c-58 0 -102 39 -102 91c0 53 43 91 102 91c58 0 100 -38 100 -91c0 -52 -42 -91 -100 -91zM634 -613c-58 0 -102 39 -102 91s44 90 102 90s100 -38 100 -90s-42 -91 -100 -91z" />
    <glyph glyph-name="uni05B1" unicode="&#x5b1;" horiz-adv-x="0" 
d="M356 -341c-57 0 -101 39 -101 91c0 53 43 91 101 91c59 0 101 -38 101 -91c0 -52 -42 -91 -101 -91zM634 -341c-58 0 -102 39 -102 91c0 53 43 91 102 91c58 0 100 -38 100 -91c0 -52 -42 -91 -100 -91zM914 -341c-57 0 -101 39 -101 91c0 53 43 91 101 91
c59 0 101 -38 101 -91c0 -52 -42 -91 -101 -91zM495 -574c-58 0 -102 38 -102 90c0 53 44 92 102 92c59 0 101 -39 101 -92c0 -52 -42 -90 -101 -90zM914 -613c-57 0 -101 39 -101 91s44 90 101 90c59 0 101 -38 101 -90s-42 -91 -101 -91z" />
    <glyph glyph-name="uni05B2" unicode="&#x5b2;" horiz-adv-x="0" 
d="M912 -341c-58 0 -102 39 -102 91c0 53 44 91 102 91c59 0 101 -38 101 -91c0 -52 -42 -91 -101 -91zM257 -315v133h470v-133h-470zM912 -613c-58 0 -102 39 -102 91s44 90 102 90c59 0 101 -38 101 -90s-42 -91 -101 -91z" />
    <glyph glyph-name="uni05B3" unicode="&#x5b3;" horiz-adv-x="0" 
d="M912 -341c-58 0 -102 39 -102 91c0 53 44 91 102 91c59 0 101 -38 101 -91c0 -52 -42 -91 -101 -91zM491 -610c-56 0 -100 39 -100 91c0 57 50 68 60 204h-195v133h471v-133h-195c10 -136 60 -147 60 -204c0 -52 -42 -91 -101 -91zM912 -613c-58 0 -102 39 -102 91
s44 90 102 90c59 0 101 -38 101 -90s-42 -91 -101 -91z" />
    <glyph glyph-name="uni05B4" unicode="&#x5b4;" horiz-adv-x="0" 
d="M634 -341c-58 0 -102 40 -102 91c0 53 43 91 102 91c58 0 100 -38 100 -91c0 -52 -42 -91 -100 -91z" />
    <glyph glyph-name="uni05B5" unicode="&#x5b5;" horiz-adv-x="0" 
d="M495 -341c-58 0 -102 40 -102 91c0 53 44 91 102 91c59 0 101 -38 101 -91c0 -52 -42 -91 -101 -91zM771 -341c-57 0 -102 40 -102 91c0 53 44 91 102 91c59 0 101 -38 101 -91c0 -52 -42 -91 -101 -91z" />
    <glyph glyph-name="uni05B6" unicode="&#x5b6;" horiz-adv-x="0" 
d="M495 -341c-58 0 -102 40 -102 91c0 53 44 91 102 91c59 0 101 -38 101 -91c0 -52 -42 -91 -101 -91zM771 -341c-57 0 -102 40 -102 91c0 53 44 91 102 91c59 0 101 -38 101 -91c0 -52 -42 -91 -101 -91zM634 -574c-58 0 -102 38 -102 90c0 53 44 92 102 92
s100 -39 100 -92c0 -52 -42 -90 -100 -90z" />
    <glyph glyph-name="uni05B7" unicode="&#x5b7;" horiz-adv-x="0" 
d="M394 -315v133h478v-133h-478z" />
    <glyph glyph-name="uni05B8" unicode="&#x5b8;" horiz-adv-x="0" 
d="M634 -586c-58 0 -102 40 -102 91c0 57 51 68 61 180h-171v133h423v-133h-172c12 -112 62 -123 62 -180c0 -52 -43 -91 -101 -91z" />
    <glyph glyph-name="uni05B9" unicode="&#x5b9;" horiz-adv-x="0" 
d="M303 1352c-58 0 -102 39 -102 90c0 53 44 92 102 92c59 0 101 -39 101 -92c0 -52 -42 -90 -101 -90z" />
    <glyph glyph-name="uni05BA" unicode="&#x5ba;" horiz-adv-x="0" 
d="M303 1352c-58 0 -102 39 -102 90c0 53 44 92 102 92c59 0 101 -39 101 -92c0 -52 -42 -90 -101 -90z" />
    <glyph glyph-name="uni05BB" unicode="&#x5bb;" horiz-adv-x="0" 
d="M634 -341c-58 0 -102 40 -102 91c0 53 43 91 102 91c58 0 101 -38 101 -91c0 -52 -43 -91 -101 -91zM775 -571c-58 0 -102 38 -102 89c0 53 43 91 102 91c57 0 101 -40 101 -91c0 -52 -44 -89 -101 -89zM916 -803c-58 0 -102 39 -102 90c0 53 44 92 102 92
c59 0 101 -39 101 -92c0 -52 -42 -90 -101 -90z" />
    <glyph glyph-name="uni05BC" unicode="&#x5bc;" horiz-adv-x="0" 
d="M334 512c-58 0 -102 39 -102 90c0 53 44 91 102 91c59 0 102 -38 102 -91c0 -52 -43 -90 -102 -90z" />
    <glyph glyph-name="uni05BF" unicode="&#x5bf;" horiz-adv-x="0" 
d="M221 1367v159h582v-159h-582z" />
    <glyph glyph-name="uni05C1" unicode="&#x5c1;" horiz-adv-x="0" 
d="M1423 1352c-58 0 -102 39 -102 90c0 53 44 92 102 92c59 0 102 -39 102 -92c0 -52 -43 -90 -102 -90z" />
    <glyph glyph-name="uni05C2" unicode="&#x5c2;" horiz-adv-x="0" 
d="M286 1352c-58 0 -102 39 -102 90c0 53 44 92 102 92s101 -39 101 -92c0 -52 -43 -90 -101 -90z" />
    <glyph glyph-name="longst" unicode="&#xfb05;" horiz-adv-x="1332" 
d="M1211 228c36 0 64 3 84 7v-227c-50 -18 -107 -28 -178 -28c-196 0 -318 92 -318 324v558h-153v220h153v161h-1v44c-26 12 -92 27 -168 27c-92 0 -143 -51 -143 -140v-1174h-302v862h-160v220h160v92c0 248 151 383 406 383c197 0 377 -59 509 -107v-100h1v-268h182v-220
h-182v-523c0 -89 34 -111 110 -111z" />
    <glyph glyph-name="st" unicode="&#xfb06;" horiz-adv-x="1749" 
d="M1630 228c36 0 63 3 84 7v-227c-51 -18 -108 -28 -179 -28c-196 0 -318 105 -318 363v519h-151v220h151v90c0 126 -82 170 -168 170c-113 0 -152 -78 -152 -151c0 -157 82 -243 82 -439h-302c0 83 -48 138 -158 138c-89 0 -145 -47 -145 -111c0 -61 51 -98 196 -125
c230 -44 411 -122 411 -342c0 -191 -179 -332 -460 -332c-306 0 -470 191 -470 366h285c4 -109 89 -153 192 -153c105 0 160 44 160 109c0 58 -42 93 -219 131c-219 47 -384 143 -384 331c0 181 162 338 435 338c58 0 112 -6 160 -18c-28 61 -46 118 -46 180
c0 163 144 296 423 296c345 0 462 -182 462 -388v-90h183v-220h-183v-518c0 -88 34 -116 111 -116z" />
    <glyph glyph-name="crossbar" horiz-adv-x="985" 
d="M848 650h-708v186h708v-186z" />
    </font>
</defs>
</svg>
