<?xml version="1.0" standalone="no"?>
<!DOCTYPE svg PUBLIC "-//W3C//DTD SVG 1.1//EN" "http://www.w3.org/Graphics/SVG/1.1/DTD/svg11.dtd" >
<svg xmlns="http://www.w3.org/2000/svg" xmlns:xlink="http://www.w3.org/1999/xlink" version="1.1">
<metadata>
Created by FontForge 20160405 at Mon Mar 25 08:58:52 2019
 By www-data
Copyright 2014 The Heebo Project Authors.
</metadata>
<defs>
<font id="Heebo-Light" horiz-adv-x="740" >
  <font-face 
    font-family="Heebo Light"
    font-weight="300"
    font-stretch="normal"
    units-per-em="2048"
    panose-1="0 0 4 0 0 0 0 0 0 0"
    ascent="1638"
    descent="-410"
    x-height="1082"
    cap-height="1456"
    bbox="-899 -628 1824 2146"
    underline-thickness="100"
    underline-position="-150"
    stemh="160"
    stemv="196"
    unicode-range="U+0020-FB4F"
  />
<missing-glyph horiz-adv-x="1351" 
d="M1107 2146v-2701h-856v2701h856zM899 1965h-445v-89h175v-100h-178v-89h448v89h-178v100h178v89zM721 1617h-270v-281h448v92h-178v189zM629 1525v-97h-89v97h89zM899 1263h-448v-89h178v-100h-178v-89h270v189h178v89zM899 1101h-89v-179h-359v-91h448v270zM899 771
h-270v-151h92v62h89v-127h-270v216h-89v-305h448v305zM899 304h-448v-305h448v305zM810 215v-127h-270v127h270zM899 -63h-448v-90h189l-189 -126v-90h448v90h-275l189 126h86v90z" />
    <glyph glyph-name=".notdef" horiz-adv-x="1351" 
d="M1107 2146v-2701h-856v2701h856zM899 1965h-445v-89h175v-100h-178v-89h448v89h-178v100h178v89zM721 1617h-270v-281h448v92h-178v189zM629 1525v-97h-89v97h89zM899 1263h-448v-89h178v-100h-178v-89h270v189h178v89zM899 1101h-89v-179h-359v-91h448v270zM899 771
h-270v-151h92v62h89v-127h-270v216h-89v-305h448v305zM899 304h-448v-305h448v305zM810 215v-127h-270v127h270zM899 -63h-448v-90h189l-189 -126v-90h448v90h-275l189 126h86v90z" />
    <glyph glyph-name="A" unicode="A" horiz-adv-x="1280" 
d="M1121 0l-150 408h-662l-150 -408h-128l550 1456h117l551 -1456h-128zM348 513h584l-292 794z" />
    <glyph glyph-name="Aacute" unicode="&#xc1;" horiz-adv-x="1280" 
d="M909 1851l-231 -279h-105l191 279h145zM1121 0l-150 408h-662l-150 -408h-128l550 1456h117l551 -1456h-128zM348 513h584l-292 794z" />
    <glyph glyph-name="Acircumflex" unicode="&#xc2;" horiz-adv-x="1280" 
d="M641 1757l-167 -183h-108v12l238 255h76l240 -257v-10h-110zM1121 0l-150 408h-662l-150 -408h-128l550 1456h117l551 -1456h-128zM348 513h584l-292 794z" />
    <glyph glyph-name="Adieresis" unicode="&#xc4;" horiz-adv-x="1280" 
d="M425 1632c-52 0 -82 35 -82 80s30 80 82 80c51 0 83 -35 83 -80s-32 -80 -83 -80zM862 1632c-51 0 -82 34 -82 79s31 81 82 81c52 0 83 -36 83 -81s-31 -79 -83 -79zM1121 0l-150 408h-662l-150 -408h-128l550 1456h117l551 -1456h-128zM348 513h584l-292 794z" />
    <glyph glyph-name="Agrave" unicode="&#xc0;" horiz-adv-x="1280" 
d="M714 1572h-109l-227 279h145zM1121 0l-150 408h-662l-150 -408h-128l550 1456h117l551 -1456h-128zM348 513h584l-292 794z" />
    <glyph glyph-name="Aring" unicode="&#xc5;" horiz-adv-x="1280" 
d="M643 1529c-109 0 -193 80 -193 187s84 191 193 191c108 0 193 -84 193 -191s-85 -187 -193 -187zM643 1835c-68 0 -117 -52 -117 -119c0 -64 49 -115 117 -115s116 50 116 115c0 67 -48 119 -116 119zM1121 0l-150 408h-662l-150 -408h-128l550 1456h117l551 -1456h-128z
M348 513h584l-292 794z" />
    <glyph glyph-name="Atilde" unicode="&#xc3;" horiz-adv-x="1280" 
d="M511 1708c-62 0 -111 -45 -111 -119l-89 4c0 127 85 212 195 212c126 0 169 -110 278 -110c61 0 110 48 110 122l90 -6c0 -129 -87 -213 -196 -213c-140 0 -163 110 -277 110zM1121 0l-150 408h-662l-150 -408h-128l550 1456h117l551 -1456h-128zM348 513h584l-292 794z
" />
    <glyph glyph-name="AE" unicode="&#xc6;" horiz-adv-x="1865" 
d="M1122 102h702v-102h-818l-16 390h-596l-230 -390h-146l881 1456h863v-102h-693l23 -545h589v-101h-585zM461 502h524l-35 829z" />
    <glyph glyph-name="B" unicode="B" horiz-adv-x="1255" 
d="M860 760c172 -38 283 -181 283 -350c0 -265 -188 -410 -466 -410h-492v1456h430c295 0 475 -116 475 -380c0 -149 -85 -267 -230 -316zM615 1351h-307v-547h319c215 0 339 94 339 274c0 186 -118 273 -351 273zM677 104c214 0 342 115 342 304c0 165 -106 293 -333 293
h-378v-597h369z" />
    <glyph glyph-name="C" unicode="C" horiz-adv-x="1330" 
d="M1215 454c-30 -296 -215 -474 -535 -474c-332 0 -548 263 -548 657v182c0 394 216 657 556 657c311 0 497 -176 527 -475h-123c-30 235 -154 370 -404 370c-270 0 -433 -220 -433 -550v-184c0 -321 154 -553 425 -553c257 0 381 124 412 370h123z" />
    <glyph glyph-name="Ccedilla" unicode="&#xc7;" horiz-adv-x="1330" 
d="M680 84c257 0 381 124 412 370h123c-28 -281 -197 -456 -487 -473l-10 -56c82 -11 165 -52 165 -171s-107 -199 -294 -199l-7 77c99 0 201 36 201 121c0 77 -57 98 -175 109l26 120c-306 23 -502 279 -502 655v182c0 394 216 657 556 657c311 0 497 -176 527 -475h-123
c-30 235 -154 370 -404 370c-270 0 -433 -220 -433 -550v-184c0 -321 154 -553 425 -553z" />
    <glyph glyph-name="D" unicode="D" horiz-adv-x="1342" 
d="M592 1456c363 0 621 -262 621 -661v-134c0 -400 -256 -661 -630 -661h-398v1456h407zM1091 661v136c0 336 -199 554 -499 554h-284v-1247h275c312 0 508 226 508 557z" />
    <glyph glyph-name="Eth" unicode="&#xd0;" horiz-adv-x="1342" 
d="M592 1456c363 0 621 -262 621 -661v-134c0 -400 -256 -661 -630 -661h-398v690h-151v102h151v664h407zM1091 661v136c0 336 -199 554 -499 554h-284v-559h337v-102h-337v-586h275c312 0 508 226 508 557z" />
    <glyph glyph-name="E" unicode="E" horiz-adv-x="1165" 
d="M308 104h782v-104h-905v1456h900v-105h-777v-548h680v-105h-680v-594z" />
    <glyph glyph-name="Eacute" unicode="&#xc9;" horiz-adv-x="1165" 
d="M886 1856l-231 -279h-105l191 279h145zM308 104h782v-104h-905v1456h900v-105h-777v-548h680v-105h-680v-594z" />
    <glyph glyph-name="Ecircumflex" unicode="&#xca;" horiz-adv-x="1165" 
d="M618 1762l-167 -183h-108v12l238 255h76l240 -257v-10h-110zM308 104h782v-104h-905v1456h900v-105h-777v-548h680v-105h-680v-594z" />
    <glyph glyph-name="Edieresis" unicode="&#xcb;" horiz-adv-x="1165" 
d="M402 1637c-52 0 -82 35 -82 80s30 80 82 80c51 0 83 -35 83 -80s-32 -80 -83 -80zM839 1637c-51 0 -82 34 -82 79s31 81 82 81c52 0 83 -36 83 -81s-31 -79 -83 -79zM308 104h782v-104h-905v1456h900v-105h-777v-548h680v-105h-680v-594z" />
    <glyph glyph-name="Egrave" unicode="&#xc8;" horiz-adv-x="1165" 
d="M691 1577h-109l-227 279h145zM308 104h782v-104h-905v1456h900v-105h-777v-548h680v-105h-680v-594z" />
    <glyph glyph-name="F" unicode="F" horiz-adv-x="1152" 
d="M1087 1351h-779v-565h678v-106h-678v-680h-123v1456h902v-105z" />
    <glyph glyph-name="G" unicode="G" horiz-adv-x="1401" 
d="M1235 174c-51 -73 -200 -194 -506 -194c-343 0 -584 258 -584 665v177c0 400 216 654 565 654c324 0 492 -185 524 -430h-123c-29 174 -138 325 -401 325c-284 0 -441 -219 -441 -547v-179c0 -339 183 -561 461 -561c222 0 341 76 383 127v376h-391v105h513v-518z" />
    <glyph glyph-name="H" unicode="H" horiz-adv-x="1449" 
d="M1140 1456h123v-1456h-123v698h-832v-698h-123v1456h123v-653h832v653z" />
    <glyph glyph-name="I" unicode="I" horiz-adv-x="546" 
d="M335 0h-123v1456h123v-1456z" />
    <glyph glyph-name="Iacute" unicode="&#xcd;" horiz-adv-x="546" 
d="M395 1856h145l-231 -279h-105zM335 0h-123v1456h123v-1456z" />
    <glyph glyph-name="Icircumflex" unicode="&#xce;" horiz-adv-x="546" 
d="M551 1589v-10h-110l-169 183l-167 -183h-108v12l238 255h76zM335 0h-123v1456h123v-1456z" />
    <glyph glyph-name="Idieresis" unicode="&#xcf;" horiz-adv-x="546" 
d="M56 1797c51 0 83 -35 83 -80s-32 -80 -83 -80c-52 0 -82 35 -82 80s30 80 82 80zM493 1797c52 0 83 -36 83 -81s-31 -79 -83 -79c-51 0 -82 34 -82 79s31 81 82 81zM335 0h-123v1456h123v-1456z" />
    <glyph glyph-name="Igrave" unicode="&#xcc;" horiz-adv-x="546" 
d="M345 1577h-109l-227 279h145zM335 0h-123v1456h123v-1456z" />
    <glyph glyph-name="J" unicode="J" horiz-adv-x="1128" 
d="M828 1456h123v-1022c0 -294 -187 -454 -440 -454c-262 0 -439 136 -439 422h123c0 -210 117 -318 316 -318c177 0 317 120 317 350v1022z" />
    <glyph glyph-name="K" unicode="K" horiz-adv-x="1292" 
d="M1106 0l-593 723l-205 -201v-522h-123v1456h123v-783l198 206l547 577h155l-610 -648l658 -808h-150z" />
    <glyph glyph-name="L" unicode="L" horiz-adv-x="1080" 
d="M309 104h718v-104h-842v1456h124v-1352z" />
    <glyph glyph-name="M" unicode="M" horiz-adv-x="1772" 
d="M1587 1456v-1456h-123v637l11 649l-543 -1286h-95l-540 1281l11 -644v-637h-123v1456h162l538 -1284l538 1284h164z" />
    <glyph glyph-name="N" unicode="N" horiz-adv-x="1455" 
d="M1269 0h-124l-836 1246v-1246h-124v1456h124l837 -1246v1246h123v-1456z" />
    <glyph glyph-name="Ntilde" unicode="&#xd1;" horiz-adv-x="1455" 
d="M1068 1811c0 -129 -87 -213 -196 -213c-140 0 -163 110 -277 110c-62 0 -111 -45 -111 -119l-89 4c0 127 85 212 195 212c126 0 169 -110 278 -110c61 0 110 48 110 122zM1269 0h-124l-836 1246v-1246h-124v1456h124l837 -1246v1246h123v-1456z" />
    <glyph glyph-name="O" unicode="O" horiz-adv-x="1387" 
d="M1260 650c0 -408 -221 -670 -566 -670c-339 0 -568 262 -568 670v156c0 407 227 670 566 670c345 0 568 -263 568 -670v-156zM1138 808c0 344 -164 560 -446 560c-275 0 -443 -216 -443 -560v-158c0 -346 170 -562 445 -562c283 0 444 216 444 562v158z" />
    <glyph glyph-name="Oacute" unicode="&#xd3;" horiz-adv-x="1387" 
d="M813 1862h145l-231 -279h-105zM1260 650c0 -408 -221 -670 -566 -670c-339 0 -568 262 -568 670v156c0 407 227 670 566 670c345 0 568 -263 568 -670v-156zM1138 808c0 344 -164 560 -446 560c-275 0 -443 -216 -443 -560v-158c0 -346 170 -562 445 -562
c283 0 444 216 444 562v158z" />
    <glyph glyph-name="Ocircumflex" unicode="&#xd4;" horiz-adv-x="1387" 
d="M969 1595v-10h-110l-169 183l-167 -183h-108v12l238 255h76zM1260 650c0 -408 -221 -670 -566 -670c-339 0 -568 262 -568 670v156c0 407 227 670 566 670c345 0 568 -263 568 -670v-156zM1138 808c0 344 -164 560 -446 560c-275 0 -443 -216 -443 -560v-158
c0 -346 170 -562 445 -562c283 0 444 216 444 562v158z" />
    <glyph glyph-name="Odieresis" unicode="&#xd6;" horiz-adv-x="1387" 
d="M474 1803c51 0 83 -35 83 -80s-32 -80 -83 -80c-52 0 -82 35 -82 80s30 80 82 80zM911 1803c52 0 83 -36 83 -81s-31 -79 -83 -79c-51 0 -82 34 -82 79s31 81 82 81zM1260 650c0 -408 -221 -670 -566 -670c-339 0 -568 262 -568 670v156c0 407 227 670 566 670
c345 0 568 -263 568 -670v-156zM1138 808c0 344 -164 560 -446 560c-275 0 -443 -216 -443 -560v-158c0 -346 170 -562 445 -562c283 0 444 216 444 562v158z" />
    <glyph glyph-name="Ograve" unicode="&#xd2;" horiz-adv-x="1387" 
d="M763 1583h-109l-227 279h145zM1260 650c0 -408 -221 -670 -566 -670c-339 0 -568 262 -568 670v156c0 407 227 670 566 670c345 0 568 -263 568 -670v-156zM1138 808c0 344 -164 560 -446 560c-275 0 -443 -216 -443 -560v-158c0 -346 170 -562 445 -562
c283 0 444 216 444 562v158z" />
    <glyph glyph-name="Oslash" unicode="&#xd8;" horiz-adv-x="1387" 
d="M1275 1505l-149 -237c86 -115 134 -273 134 -462v-156c0 -408 -221 -670 -566 -670c-122 0 -230 34 -318 97l-101 -161h-104l137 218c-115 117 -182 295 -182 516v156c0 407 227 670 566 670c150 0 277 -50 373 -140l106 169h104zM249 650c0 -176 44 -318 123 -415
l631 1003c-75 84 -181 130 -311 130c-275 0 -443 -216 -443 -560v-158zM1138 808c0 141 -28 261 -80 353l-622 -989c70 -55 157 -84 258 -84c283 0 444 216 444 562v158z" />
    <glyph glyph-name="Otilde" unicode="&#xd5;" horiz-adv-x="1387" 
d="M1033 1822c0 -129 -87 -213 -196 -213c-140 0 -163 110 -277 110c-62 0 -111 -45 -111 -119l-89 4c0 127 85 212 195 212c126 0 169 -110 278 -110c61 0 110 48 110 122zM1260 650c0 -408 -221 -670 -566 -670c-339 0 -568 262 -568 670v156c0 407 227 670 566 670
c345 0 568 -263 568 -670v-156zM1138 808c0 344 -164 560 -446 560c-275 0 -443 -216 -443 -560v-158c0 -346 170 -562 445 -562c283 0 444 216 444 562v158z" />
    <glyph glyph-name="OE" unicode="&#x152;" horiz-adv-x="1913" 
d="M1019 104h782v-104h-844c-95 -10 -201 -21 -311 -21c-318 0 -538 244 -538 597v304c0 353 218 596 536 596c110 0 218 -9 313 -20h839v-105h-777v-548h680v-105h-680v-594zM228 576c0 -304 164 -495 418 -495c85 0 173 5 250 14v1266c-78 10 -163 14 -252 14
c-254 0 -416 -186 -416 -493v-306z" />
    <glyph glyph-name="P" unicode="P" horiz-adv-x="1261" 
d="M681 1456c320 0 490 -177 490 -434c0 -269 -170 -429 -490 -429h-373v-593h-123v1456h496zM681 698c259 0 367 140 367 322c0 178 -108 331 -367 331h-373v-653h373z" />
    <glyph glyph-name="Thorn" unicode="&#xde;" horiz-adv-x="1215" 
d="M627 1153c303 0 469 -177 469 -415s-166 -414 -469 -414h-324v-324h-120v1456h120v-303h324zM627 426c248 0 349 159 349 310c0 157 -101 315 -349 315h-324v-625h324z" />
    <glyph glyph-name="Q" unicode="Q" horiz-adv-x="1387" 
d="M1256 650c0 -280 -104 -492 -282 -597l265 -231l-85 -77l-296 258c-52 -15 -108 -23 -168 -23c-340 0 -569 262 -569 670v156c0 407 227 670 567 670c345 0 568 -263 568 -670v-156zM690 88c282 0 443 216 443 562v158c0 344 -163 560 -445 560
c-275 0 -443 -216 -443 -560v-158c0 -346 170 -562 445 -562z" />
    <glyph glyph-name="R" unicode="R" horiz-adv-x="1301" 
d="M848 632l364 -619v-13h-132l-351 607h-424v-607h-123v1456h473c303 0 494 -151 494 -429c0 -193 -123 -343 -301 -395zM305 711h377c229 0 344 150 344 316c0 200 -131 324 -371 324h-350v-640z" />
    <glyph glyph-name="S" unicode="S" horiz-adv-x="1213" 
d="M611 685c-293 82 -476 185 -476 415c0 224 202 376 489 376c306 0 499 -192 499 -435h-123c0 190 -138 330 -376 330c-241 0 -365 -122 -365 -268c0 -140 96 -231 390 -310c309 -84 484 -197 484 -433c0 -237 -211 -380 -501 -380c-259 0 -544 128 -544 436h124
c0 -246 221 -332 420 -332c229 0 377 110 377 274c0 161 -96 242 -398 327z" />
    <glyph glyph-name="uni1E9E" unicode="&#x1e9e;" horiz-adv-x="1324" 
d="M725 838c326 0 494 -165 494 -430c0 -273 -186 -428 -474 -428c-93 0 -181 14 -275 49l43 104c55 -26 136 -52 232 -52c217 0 354 116 354 325c0 210 -113 333 -376 333h-149v103l354 388c-74 83 -181 144 -325 144c-236 0 -313 -144 -313 -396v-978h-118v980
c0 313 116 496 431 496c208 0 355 -98 476 -233l-365 -405h11z" />
    <glyph glyph-name="T" unicode="T" horiz-adv-x="1223" 
d="M1172 1456v-105h-499v-1351h-122v1351h-499v105h1120z" />
    <glyph glyph-name="U" unicode="U" horiz-adv-x="1347" 
d="M1187 1456v-986c0 -328 -229 -490 -513 -490c-290 0 -511 162 -511 490v986h122v-986c0 -255 164 -386 389 -386c227 0 390 131 390 386v986h123z" />
    <glyph glyph-name="Uacute" unicode="&#xda;" horiz-adv-x="1347" 
d="M804 1851h145l-231 -279h-105zM1187 1456v-986c0 -328 -229 -490 -513 -490c-290 0 -511 162 -511 490v986h122v-986c0 -255 164 -386 389 -386c227 0 390 131 390 386v986h123z" />
    <glyph glyph-name="Ucircumflex" unicode="&#xdb;" horiz-adv-x="1347" 
d="M960 1584v-10h-110l-169 183l-167 -183h-108v12l238 255h76zM1187 1456v-986c0 -328 -229 -490 -513 -490c-290 0 -511 162 -511 490v986h122v-986c0 -255 164 -386 389 -386c227 0 390 131 390 386v986h123z" />
    <glyph glyph-name="Udieresis" unicode="&#xdc;" horiz-adv-x="1347" 
d="M465 1792c51 0 83 -35 83 -80s-32 -80 -83 -80c-52 0 -82 35 -82 80s30 80 82 80zM902 1792c52 0 83 -36 83 -81s-31 -79 -83 -79c-51 0 -82 34 -82 79s31 81 82 81zM1187 1456v-986c0 -328 -229 -490 -513 -490c-290 0 -511 162 -511 490v986h122v-986
c0 -255 164 -386 389 -386c227 0 390 131 390 386v986h123z" />
    <glyph glyph-name="Ugrave" unicode="&#xd9;" horiz-adv-x="1347" 
d="M754 1572h-109l-227 279h145zM1187 1456v-986c0 -328 -229 -490 -513 -490c-290 0 -511 162 -511 490v986h122v-986c0 -255 164 -386 389 -386c227 0 390 131 390 386v986h123z" />
    <glyph glyph-name="V" unicode="V" horiz-adv-x="1264" 
d="M1099 1456h134l-542 -1456h-118l-541 1456h134l457 -1275l9 -31l8 31z" />
    <glyph glyph-name="W" unicode="W" horiz-adv-x="1836" 
d="M1657 1456h126l-372 -1456h-118l-331 1139l-36 145l-37 -145l-337 -1139h-118l-373 1456h126l266 -1063l46 -226l55 217l316 1072h111l311 -1072l55 -218l47 228z" />
    <glyph glyph-name="X" unicode="X" horiz-adv-x="1254" 
d="M628 840l409 616h147l-482 -717l497 -739h-147l-424 636l-426 -636h-146l497 739l-482 717h147z" />
    <glyph glyph-name="Y" unicode="Y" horiz-adv-x="1227" 
d="M611 662l445 794h143l-526 -907v-549h-123v549l-526 907h146z" />
    <glyph glyph-name="Yacute" unicode="&#xdd;" horiz-adv-x="1227" 
d="M735 1845h145l-231 -279h-105zM611 662l445 794h143l-526 -907v-549h-123v549l-526 907h146z" />
    <glyph glyph-name="Z" unicode="Z" horiz-adv-x="1225" 
d="M239 104h899v-104h-1048v93l866 1259h-839v104h989v-88z" />
    <glyph glyph-name="K.alt" horiz-adv-x="1308" 
d="M1115 0l-603 684h-199v-684h-124v1456h124v-667h193l564 667h155l-599 -715l642 -741h-153z" />
    <glyph glyph-name="R.alt" horiz-adv-x="1348" 
d="M1158 235c0 -82 16 -162 69 -211v-25h-126c-53 55 -67 161 -67 238v131c0 177 -115 288 -324 288h-400v-657h-124v1456h495c312 0 485 -137 485 -402c0 -152 -93 -284 -261 -341c191 -46 253 -176 253 -342v-135zM666 761c276 0 377 127 377 292c0 187 -114 298 -363 298
h-370v-590h356z" />
    <glyph glyph-name="K.alt2" horiz-adv-x="1321" 
d="M1211 0h-159l-739 710v-710h-124v1456h124v-678h11l683 678h161l-716 -716z" />
    <glyph glyph-name="C.ss06" horiz-adv-x="1373" 
d="M1272 454c-34 -289 -221 -475 -537 -475c-356 0 -607 302 -607 719v59c0 418 243 720 603 720c311 0 506 -183 542 -476h-124c-35 228 -168 371 -418 371c-290 0 -479 -259 -479 -613v-61c0 -355 198 -615 483 -615c252 0 378 133 414 371h123z" />
    <glyph glyph-name="D.ss06" horiz-adv-x="1401" 
d="M597 1456c383 0 674 -279 674 -703v-50c0 -424 -289 -703 -682 -703h-400v1456h408zM1146 703v53c0 360 -228 595 -549 595h-284v-1247h275c332 0 558 244 558 599z" />
    <glyph glyph-name="G.ss06" horiz-adv-x="1442" 
d="M1280 173c-50 -72 -210 -194 -503 -194c-375 0 -649 302 -649 738v33c0 430 251 726 602 726c341 0 515 -185 548 -430h-123c-31 174 -143 326 -425 326c-286 0 -478 -263 -478 -620v-35c0 -369 215 -634 525 -634c211 0 340 77 380 128v376h-391v104h514v-518z" />
    <glyph glyph-name="O.ss06" horiz-adv-x="1461" 
d="M1332 703c0 -422 -255 -724 -601 -724c-340 0 -603 302 -603 724v50c0 421 261 724 601 724c346 0 603 -303 603 -724v-50zM1209 755c0 356 -197 614 -480 614c-275 0 -478 -258 -478 -614v-52c0 -359 205 -616 480 -616c284 0 478 257 478 616v52z" />
    <glyph glyph-name="Q.ss06" horiz-adv-x="1463" 
d="M1332 703c0 -295 -125 -532 -319 -647l276 -227l-85 -77l-307 252c-53 -17 -108 -25 -166 -25c-340 0 -603 302 -603 724v44c0 422 261 730 601 730c346 0 603 -308 603 -730v-44zM731 87c284 0 478 256 478 616v46c0 358 -197 620 -480 620c-275 0 -478 -262 -478 -620
v-46c0 -360 205 -616 480 -616z" />
    <glyph glyph-name="a" unicode="a" horiz-adv-x="1098" 
d="M935 227c0 -75 11 -164 33 -214v-13h-128c-13 37 -21 96 -24 151c-72 -92 -195 -171 -366 -171c-212 0 -349 131 -349 307c0 212 188 343 493 343h221v122c0 155 -99 250 -279 250c-168 0 -290 -98 -290 -219l-120 1c0 162 168 318 415 318c231 0 394 -117 394 -352v-523
zM463 86c174 0 300 94 352 213v239h-205c-245 0 -390 -91 -390 -241c0 -117 93 -211 243 -211z" />
    <glyph glyph-name="aacute" unicode="&#xe1;" horiz-adv-x="1098" 
d="M846 1535l-231 -279h-105l191 279h145zM935 227c0 -75 11 -164 33 -214v-13h-128c-13 37 -21 96 -24 151c-72 -92 -195 -171 -366 -171c-212 0 -349 131 -349 307c0 212 188 343 493 343h221v122c0 155 -99 250 -279 250c-168 0 -290 -98 -290 -219l-120 1
c0 162 168 318 415 318c231 0 394 -117 394 -352v-523zM463 86c174 0 300 94 352 213v239h-205c-245 0 -390 -91 -390 -241c0 -117 93 -211 243 -211z" />
    <glyph glyph-name="acircumflex" unicode="&#xe2;" horiz-adv-x="1098" 
d="M578 1441l-167 -183h-108v12l238 255h76l240 -257v-10h-110zM935 227c0 -75 11 -164 33 -214v-13h-128c-13 37 -21 96 -24 151c-72 -92 -195 -171 -366 -171c-212 0 -349 131 -349 307c0 212 188 343 493 343h221v122c0 155 -99 250 -279 250c-168 0 -290 -98 -290 -219
l-120 1c0 162 168 318 415 318c231 0 394 -117 394 -352v-523zM463 86c174 0 300 94 352 213v239h-205c-245 0 -390 -91 -390 -241c0 -117 93 -211 243 -211z" />
    <glyph glyph-name="adieresis" unicode="&#xe4;" horiz-adv-x="1098" 
d="M362 1316c-52 0 -82 35 -82 80s30 80 82 80c51 0 83 -35 83 -80s-32 -80 -83 -80zM799 1316c-51 0 -82 34 -82 79s31 81 82 81c52 0 83 -36 83 -81s-31 -79 -83 -79zM935 227c0 -75 11 -164 33 -214v-13h-128c-13 37 -21 96 -24 151c-72 -92 -195 -171 -366 -171
c-212 0 -349 131 -349 307c0 212 188 343 493 343h221v122c0 155 -99 250 -279 250c-168 0 -290 -98 -290 -219l-120 1c0 162 168 318 415 318c231 0 394 -117 394 -352v-523zM463 86c174 0 300 94 352 213v239h-205c-245 0 -390 -91 -390 -241c0 -117 93 -211 243 -211z
" />
    <glyph glyph-name="agrave" unicode="&#xe0;" horiz-adv-x="1098" 
d="M651 1256h-109l-227 279h145zM935 227c0 -75 11 -164 33 -214v-13h-128c-13 37 -21 96 -24 151c-72 -92 -195 -171 -366 -171c-212 0 -349 131 -349 307c0 212 188 343 493 343h221v122c0 155 -99 250 -279 250c-168 0 -290 -98 -290 -219l-120 1c0 162 168 318 415 318
c231 0 394 -117 394 -352v-523zM463 86c174 0 300 94 352 213v239h-205c-245 0 -390 -91 -390 -241c0 -117 93 -211 243 -211z" />
    <glyph glyph-name="aring" unicode="&#xe5;" horiz-adv-x="1098" 
d="M580 1213c-109 0 -193 80 -193 187s84 191 193 191c108 0 193 -84 193 -191s-85 -187 -193 -187zM580 1519c-68 0 -117 -52 -117 -119c0 -64 49 -115 117 -115s116 50 116 115c0 67 -48 119 -116 119zM935 227c0 -75 11 -164 33 -214v-13h-128c-13 37 -21 96 -24 151
c-72 -92 -195 -171 -366 -171c-212 0 -349 131 -349 307c0 212 188 343 493 343h221v122c0 155 -99 250 -279 250c-168 0 -290 -98 -290 -219l-120 1c0 162 168 318 415 318c231 0 394 -117 394 -352v-523zM463 86c174 0 300 94 352 213v239h-205c-245 0 -390 -91 -390 -241
c0 -117 93 -211 243 -211z" />
    <glyph glyph-name="atilde" unicode="&#xe3;" horiz-adv-x="1098" 
d="M448 1392c-62 0 -111 -45 -111 -119l-89 4c0 127 85 212 195 212c126 0 169 -110 278 -110c61 0 110 48 110 122l90 -6c0 -129 -87 -213 -196 -213c-140 0 -163 110 -277 110zM935 227c0 -75 11 -164 33 -214v-13h-128c-13 37 -21 96 -24 151
c-72 -92 -195 -171 -366 -171c-212 0 -349 131 -349 307c0 212 188 343 493 343h221v122c0 155 -99 250 -279 250c-168 0 -290 -98 -290 -219l-120 1c0 162 168 318 415 318c231 0 394 -117 394 -352v-523zM463 86c174 0 300 94 352 213v239h-205c-245 0 -390 -91 -390 -241
c0 -117 93 -211 243 -211z" />
    <glyph glyph-name="ae" unicode="&#xe6;" horiz-adv-x="1732" 
d="M1659 538h-757v-28c0 -237 109 -429 363 -429c150 0 252 57 324 119l47 -88c-57 -54 -167 -132 -371 -132c-184 0 -319 79 -397 208c-59 -99 -199 -208 -427 -208c-229 0 -355 124 -355 314c0 207 151 339 439 339h256v87c0 176 -85 280 -253 280
c-185 0 -295 -103 -295 -234l-119 12c0 187 164 324 414 324c166 0 290 -71 343 -212c80 132 211 213 365 212c269 0 423 -177 423 -464v-100zM1236 1000c-190 0 -308 -157 -330 -364h633v32c0 184 -94 332 -303 332zM458 80c137 0 271 83 323 155v301h-254
c-217 0 -321 -115 -321 -246c0 -125 86 -210 252 -210z" />
    <glyph glyph-name="b" unicode="b" horiz-adv-x="1135" 
d="M613 1102c264 0 415 -215 415 -551v-21c0 -323 -152 -550 -413 -550c-158 0 -271 65 -342 169l-6 -149h-112v1536h120v-610c72 110 182 176 338 176zM907 530v21c0 252 -93 447 -317 447c-180 0 -270 -107 -315 -221v-489c50 -115 151 -204 317 -204
c218 0 315 194 315 446z" />
    <glyph glyph-name="c" unicode="c" horiz-adv-x="1056" 
d="M858 335h114c-10 -207 -195 -355 -415 -355c-304 0 -462 236 -462 540v42c0 304 159 540 460 540c232 0 407 -149 417 -384h-114c-10 175 -139 282 -303 282c-246 0 -341 -209 -341 -438v-42c0 -231 94 -438 343 -438c150 0 289 88 301 253z" />
    <glyph glyph-name="ccedilla" unicode="&#xe7;" horiz-adv-x="1056" 
d="M557 82c150 0 289 88 301 253h114c-10 -197 -178 -341 -384 -354l-9 -56c82 -11 165 -52 165 -171s-107 -199 -294 -199l-7 77c99 0 201 36 201 121c0 77 -57 98 -175 109l27 121c-264 30 -401 254 -401 537v42c0 304 159 540 460 540c232 0 407 -149 417 -384h-114
c-10 175 -139 282 -303 282c-246 0 -341 -209 -341 -438v-42c0 -231 94 -438 343 -438z" />
    <glyph glyph-name="d" unicode="d" horiz-adv-x="1138" 
d="M860 1536h120v-1536h-112l-6 145c-71 -102 -182 -165 -338 -165c-255 0 -415 227 -415 550v21c0 336 160 551 417 551c153 0 263 -64 334 -171v605zM547 84c162 0 260 83 313 195v511c-47 109 -138 208 -311 208c-220 0 -320 -195 -320 -447v-21
c0 -252 100 -446 318 -446z" />
    <glyph glyph-name="eth" unicode="&#xf0;" horiz-adv-x="1192" 
d="M811 1304c158 -166 244 -391 244 -680v-89c0 -329 -184 -555 -439 -555c-275 0 -466 215 -466 486c0 309 174 499 438 499c132 0 254 -55 332 -143c-31 181 -106 316 -210 419l-226 -140l-50 74l206 128c-99 77 -217 132 -343 172l38 104c161 -48 299 -118 409 -212
l195 121l51 -73zM936 535v91c0 19 0 37 -1 55c-42 90 -148 180 -325 180c-229 0 -340 -165 -340 -395c0 -189 125 -382 350 -382c194 0 316 191 316 451z" />
    <glyph glyph-name="e" unicode="e" horiz-adv-x="1059" 
d="M982 534h-772v-23c0 -239 150 -430 370 -430c128 0 225 45 303 148l76 -57c-71 -105 -190 -192 -384 -192c-282 0 -485 221 -485 531v43c0 334 217 548 464 548c275 0 428 -207 428 -495v-73zM554 1000c-183 0 -313 -145 -339 -364h647v13c-4 181 -105 351 -308 351z" />
    <glyph glyph-name="eacute" unicode="&#xe9;" horiz-adv-x="1059" 
d="M833 1535l-231 -279h-105l191 279h145zM982 534h-772v-23c0 -239 150 -430 370 -430c128 0 225 45 303 148l76 -57c-71 -105 -190 -192 -384 -192c-282 0 -485 221 -485 531v43c0 334 217 548 464 548c275 0 428 -207 428 -495v-73zM554 1000c-183 0 -313 -145 -339 -364
h647v13c-4 181 -105 351 -308 351z" />
    <glyph glyph-name="ecircumflex" unicode="&#xea;" horiz-adv-x="1059" 
d="M565 1441l-167 -183h-108v12l238 255h76l240 -257v-10h-110zM982 534h-772v-23c0 -239 150 -430 370 -430c128 0 225 45 303 148l76 -57c-71 -105 -190 -192 -384 -192c-282 0 -485 221 -485 531v43c0 334 217 548 464 548c275 0 428 -207 428 -495v-73zM554 1000
c-183 0 -313 -145 -339 -364h647v13c-4 181 -105 351 -308 351z" />
    <glyph glyph-name="edieresis" unicode="&#xeb;" horiz-adv-x="1059" 
d="M349 1316c-52 0 -82 35 -82 80s30 80 82 80c51 0 83 -35 83 -80s-32 -80 -83 -80zM786 1316c-51 0 -82 34 -82 79s31 81 82 81c52 0 83 -36 83 -81s-31 -79 -83 -79zM982 534h-772v-23c0 -239 150 -430 370 -430c128 0 225 45 303 148l76 -57
c-71 -105 -190 -192 -384 -192c-282 0 -485 221 -485 531v43c0 334 217 548 464 548c275 0 428 -207 428 -495v-73zM554 1000c-183 0 -313 -145 -339 -364h647v13c-4 181 -105 351 -308 351z" />
    <glyph glyph-name="egrave" unicode="&#xe8;" horiz-adv-x="1059" 
d="M638 1256h-109l-227 279h145zM982 534h-772v-23c0 -239 150 -430 370 -430c128 0 225 45 303 148l76 -57c-71 -105 -190 -192 -384 -192c-282 0 -485 221 -485 531v43c0 334 217 548 464 548c275 0 428 -207 428 -495v-73zM554 1000c-183 0 -313 -145 -339 -364h647v13
c-4 181 -105 351 -308 351z" />
    <glyph glyph-name="f" unicode="f" horiz-adv-x="678" 
d="M571 1452c-130 0 -209 -85 -209 -235v-135h259v-98h-259v-984h-119v984h-180v98h180v135c0 219 121 340 319 340c42 0 86 -5 128 -17l-9 -100c-33 8 -65 12 -110 12z" />
    <glyph glyph-name="g" unicode="g" horiz-adv-x="1137" 
d="M868 1082h112v-1063c0 -282 -171 -451 -434 -451c-135 0 -290 62 -377 185l67 73c87 -109 187 -156 303 -156c204 0 321 128 321 345v126c-71 -100 -182 -161 -336 -161c-257 0 -415 227 -415 550v21c0 336 157 551 417 551c155 0 265 -65 337 -175zM547 84
c165 0 262 85 313 200v500c-45 111 -135 214 -311 214c-220 0 -320 -195 -320 -447v-21c0 -252 100 -446 318 -446z" />
    <glyph glyph-name="h" unicode="h" horiz-adv-x="1125" 
d="M628 1102c215 0 345 -112 345 -397v-705h-120v705c0 224 -98 294 -255 294c-167 0 -275 -125 -322 -255v-744h-120v1536h120v-635c75 121 198 201 352 201z" />
    <glyph glyph-name="i" unicode="i" horiz-adv-x="460" 
d="M231 1476c52 0 83 -36 83 -81c0 -44 -31 -79 -83 -79c-51 0 -82 35 -82 79c0 45 31 81 82 81zM290 0h-119v1082h119v-1082z" />
    <glyph glyph-name="dotlessi" unicode="&#x131;" horiz-adv-x="456" 
d="M288 0h-120v1082h120v-1082z" />
    <glyph glyph-name="iacute" unicode="&#xed;" horiz-adv-x="456" 
d="M353 1522h145l-231 -279h-105zM288 0h-120v1082h120v-1082z" />
    <glyph glyph-name="icircumflex" unicode="&#xee;" horiz-adv-x="456" 
d="M509 1255v-10h-110l-169 183l-167 -183h-108v12l238 255h76zM288 0h-120v1082h120v-1082z" />
    <glyph glyph-name="idieresis" unicode="&#xef;" horiz-adv-x="456" 
d="M14 1463c51 0 83 -35 83 -80s-32 -80 -83 -80c-52 0 -82 35 -82 80s30 80 82 80zM451 1463c52 0 83 -36 83 -81s-31 -79 -83 -79c-51 0 -82 34 -82 79s31 81 82 81zM288 0h-120v1082h120v-1082z" />
    <glyph glyph-name="igrave" unicode="&#xec;" horiz-adv-x="456" 
d="M303 1243h-109l-227 279h145zM288 0h-120v1082h120v-1082z" />
    <glyph glyph-name="j" unicode="j" horiz-adv-x="468" 
d="M227 1476c51 0 83 -36 83 -81c0 -44 -32 -79 -83 -79s-82 35 -82 79c0 45 31 81 82 81zM286 1082v-1211c0 -199 -100 -308 -284 -308c-34 0 -75 7 -106 19l1 99c24 -7 60 -14 90 -14c115 0 179 68 179 204v1211h120z" />
    <glyph glyph-name="k" unicode="k" horiz-adv-x="1004" 
d="M851 0l-438 545l-137 -132v-413h-119v1536h119v-982l113 122l415 406h151l-459 -456l499 -626h-144z" />
    <glyph glyph-name="l" unicode="l" horiz-adv-x="460" 
d="M290 0h-119v1536h119v-1536z" />
    <glyph glyph-name="m" unicode="m" horiz-adv-x="1816" 
d="M1314 1102c225 0 354 -116 354 -397v-705h-119v706c0 229 -108 294 -264 293c-202 -2 -305 -156 -317 -283v-716h-120v716c0 215 -107 283 -263 283c-181 0 -276 -125 -315 -255v-744h-120v1082h116l3 -176c72 118 191 196 351 196c158 0 276 -62 324 -210
c69 122 197 210 370 210z" />
    <glyph glyph-name="n" unicode="n" horiz-adv-x="1126" 
d="M628 1102c215 0 345 -112 345 -397v-705h-120v705c0 224 -98 294 -255 294c-167 0 -275 -125 -322 -255v-744h-120v1082h115l4 -183c75 122 198 203 353 203z" />
    <glyph glyph-name="ntilde" unicode="&#xf1;" horiz-adv-x="1126" 
d="M444 1391c-62 0 -111 -45 -111 -119l-89 4c0 127 85 212 195 212c126 0 169 -110 278 -110c61 0 110 48 110 122l90 -6c0 -129 -87 -213 -196 -213c-140 0 -163 110 -277 110zM628 1102c215 0 345 -112 345 -397v-705h-120v705c0 224 -98 294 -255 294
c-167 0 -275 -125 -322 -255v-744h-120v1082h115l4 -183c75 122 198 203 353 203z" />
    <glyph glyph-name="o" unicode="o" horiz-adv-x="1148" 
d="M91 557c0 315 191 545 482 545c294 0 484 -230 484 -545v-32c0 -316 -190 -545 -482 -545c-293 0 -484 229 -484 545v32zM211 525c0 -238 128 -443 364 -443c233 0 362 205 362 443v32c0 233 -129 443 -364 443c-234 0 -362 -210 -362 -443v-32z" />
    <glyph glyph-name="oacute" unicode="&#xf3;" horiz-adv-x="1148" 
d="M693 1534h145l-231 -279h-105zM91 557c0 315 191 545 482 545c294 0 484 -230 484 -545v-32c0 -316 -190 -545 -482 -545c-293 0 -484 229 -484 545v32zM211 525c0 -238 128 -443 364 -443c233 0 362 205 362 443v32c0 233 -129 443 -364 443c-234 0 -362 -210 -362 -443
v-32z" />
    <glyph glyph-name="ocircumflex" unicode="&#xf4;" horiz-adv-x="1148" 
d="M849 1267v-10h-110l-169 183l-167 -183h-108v12l238 255h76zM91 557c0 315 191 545 482 545c294 0 484 -230 484 -545v-32c0 -316 -190 -545 -482 -545c-293 0 -484 229 -484 545v32zM211 525c0 -238 128 -443 364 -443c233 0 362 205 362 443v32
c0 233 -129 443 -364 443c-234 0 -362 -210 -362 -443v-32z" />
    <glyph glyph-name="odieresis" unicode="&#xf6;" horiz-adv-x="1148" 
d="M354 1475c51 0 83 -35 83 -80s-32 -80 -83 -80c-52 0 -82 35 -82 80s30 80 82 80zM791 1475c52 0 83 -36 83 -81s-31 -79 -83 -79c-51 0 -82 34 -82 79s31 81 82 81zM91 557c0 315 191 545 482 545c294 0 484 -230 484 -545v-32c0 -316 -190 -545 -482 -545
c-293 0 -484 229 -484 545v32zM211 525c0 -238 128 -443 364 -443c233 0 362 205 362 443v32c0 233 -129 443 -364 443c-234 0 -362 -210 -362 -443v-32z" />
    <glyph glyph-name="ograve" unicode="&#xf2;" horiz-adv-x="1148" 
d="M643 1255h-109l-227 279h145zM91 557c0 315 191 545 482 545c294 0 484 -230 484 -545v-32c0 -316 -190 -545 -482 -545c-293 0 -484 229 -484 545v32zM211 525c0 -238 128 -443 364 -443c233 0 362 205 362 443v32c0 233 -129 443 -364 443c-234 0 -362 -210 -362 -443
v-32z" />
    <glyph glyph-name="oslash" unicode="&#xf8;" horiz-adv-x="1141" 
d="M857 1010c125 -96 198 -258 198 -453v-32c0 -316 -190 -545 -482 -545c-74 0 -141 14 -200 41l-79 -161h-93l99 203c-133 93 -211 260 -211 462v32c0 315 191 545 482 545c80 0 152 -17 215 -48l78 160h93zM209 525c0 -146 48 -280 141 -362l388 794
c-47 28 -103 43 -167 43c-234 0 -362 -210 -362 -443v-32zM935 525v32c0 137 -45 266 -129 349l-387 -790c45 -22 96 -34 154 -34c233 0 362 205 362 443z" />
    <glyph glyph-name="otilde" unicode="&#xf5;" horiz-adv-x="1148" 
d="M913 1494c0 -129 -87 -213 -196 -213c-140 0 -163 110 -277 110c-62 0 -111 -45 -111 -119l-89 4c0 127 85 212 195 212c126 0 169 -110 278 -110c61 0 110 48 110 122zM91 557c0 315 191 545 482 545c294 0 484 -230 484 -545v-32c0 -316 -190 -545 -482 -545
c-293 0 -484 229 -484 545v32zM211 525c0 -238 128 -443 364 -443c233 0 362 205 362 443v32c0 233 -129 443 -364 443c-234 0 -362 -210 -362 -443v-32z" />
    <glyph glyph-name="oe" unicode="&#x153;" horiz-adv-x="1892" 
d="M1824 538h-765v-28c0 -237 139 -429 353 -429c156 0 255 48 325 120l51 -83c-74 -78 -193 -138 -376 -138c-185 0 -338 104 -416 269c-76 -165 -225 -269 -422 -269c-293 0 -479 229 -479 545v32c0 315 186 545 477 545c199 0 349 -106 425 -272c78 168 230 273 399 272
c269 0 428 -183 428 -462v-102zM932 525v32c0 233 -124 443 -360 443c-234 0 -358 -210 -358 -443v-32c0 -238 124 -444 360 -444c234 0 358 206 358 444zM1396 1000c-178 0 -307 -155 -332 -360h640v29c0 182 -111 331 -308 331z" />
    <glyph glyph-name="p" unicode="p" horiz-adv-x="1135" 
d="M612 1102c264 0 415 -215 415 -551v-21c0 -323 -151 -550 -413 -550c-153 0 -266 59 -339 157v-553h-120v1498h112l6 -153c73 109 185 173 339 173zM907 530v21c0 252 -102 447 -322 447c-173 0 -263 -98 -310 -206v-522c53 -108 151 -188 312 -188
c218 0 320 196 320 448z" />
    <glyph glyph-name="thorn" unicode="&#xfe;" horiz-adv-x="1151" 
d="M616 1102c265 0 415 -215 415 -551v-21c0 -323 -150 -550 -412 -550c-154 0 -267 59 -340 157v-553h-119v1952h119v-604c73 107 185 170 337 170zM911 530v21c0 252 -102 447 -322 447c-172 0 -263 -99 -310 -208v-519c53 -109 150 -189 312 -189c218 0 320 196 320 448z
" />
    <glyph glyph-name="q" unicode="q" horiz-adv-x="1143" 
d="M867 1082h112v-1498h-119v550c-73 -96 -184 -154 -334 -154c-262 0 -417 227 -417 550v21c0 336 155 551 419 551c151 0 261 -62 334 -166zM549 82c158 0 257 80 311 188v528c-49 105 -142 202 -309 202c-220 0 -322 -197 -322 -449v-21c0 -252 102 -448 320 -448z" />
    <glyph glyph-name="r" unicode="r" horiz-adv-x="690" 
d="M580 1102c30 0 64 -6 80 -12l-4 -109c-26 4 -50 7 -80 7c-162 0 -260 -100 -300 -242v-746h-120v1082h117l3 -169c59 116 159 189 304 189z" />
    <glyph glyph-name="s" unicode="s" horiz-adv-x="1038" 
d="M515 504c-241 51 -377 126 -377 304c0 161 146 294 381 294c251 0 400 -138 400 -323h-121c0 112 -99 221 -279 221c-187 0 -262 -98 -262 -188c0 -96 46 -156 289 -211c262 -60 379 -147 379 -319c0 -178 -157 -302 -399 -302c-275 0 -424 155 -424 324h119
c11 -170 168 -222 305 -222c182 0 279 93 279 194c0 89 -49 177 -290 228z" />
    <glyph glyph-name="germandbls" unicode="&#xdf;" horiz-adv-x="1201" 
d="M271 0h-119v1128c0 272 138 416 361 416c188 0 344 -108 344 -307c0 -201 -124 -239 -124 -412c0 -196 363 -253 363 -518c0 -215 -182 -328 -376 -328c-113 0 -253 39 -305 81l33 101c49 -36 159 -80 258 -80c173 0 271 103 271 226c0 210 -364 261 -364 520
c0 183 126 237 126 404c0 129 -100 212 -216 212c-155 0 -252 -92 -252 -315v-1128z" />
    <glyph glyph-name="longs" unicode="&#x17f;" horiz-adv-x="465" 
d="M167 0v1217c0 219 118 340 311 340c45 0 91 -6 135 -19l-15 -96c-31 8 -59 13 -105 13c-131 0 -206 -88 -206 -238v-1217h-120z" />
    <glyph glyph-name="t" unicode="t" horiz-adv-x="659" 
d="M581 96l5 -100c-29 -10 -81 -16 -128 -16c-138 0 -236 67 -236 284v720h-198v98h198v278h121v-278h223v-98h-223v-720c0 -152 66 -179 140 -179c37 0 70 6 98 11z" />
    <glyph glyph-name="u" unicode="u" horiz-adv-x="1125" 
d="M850 1082h120v-1082h-115l-3 137c-67 -98 -179 -157 -344 -157c-212 0 -356 114 -356 410v692h120v-694c0 -231 113 -304 250 -304c190 0 288 90 328 213v785z" />
    <glyph glyph-name="uacute" unicode="&#xfa;" horiz-adv-x="1125" 
d="M841 1536l-231 -279h-105l191 279h145zM850 1082h120v-1082h-115l-3 137c-67 -98 -179 -157 -344 -157c-212 0 -356 114 -356 410v692h120v-694c0 -231 113 -304 250 -304c190 0 288 90 328 213v785z" />
    <glyph glyph-name="ucircumflex" unicode="&#xfb;" horiz-adv-x="1125" 
d="M573 1442l-167 -183h-108v12l238 255h76l240 -257v-10h-110zM850 1082h120v-1082h-115l-3 137c-67 -98 -179 -157 -344 -157c-212 0 -356 114 -356 410v692h120v-694c0 -231 113 -304 250 -304c190 0 288 90 328 213v785z" />
    <glyph glyph-name="udieresis" unicode="&#xfc;" horiz-adv-x="1125" 
d="M357 1317c-52 0 -82 35 -82 80s30 80 82 80c51 0 83 -35 83 -80s-32 -80 -83 -80zM794 1317c-51 0 -82 34 -82 79s31 81 82 81c52 0 83 -36 83 -81s-31 -79 -83 -79zM850 1082h120v-1082h-115l-3 137c-67 -98 -179 -157 -344 -157c-212 0 -356 114 -356 410v692h120v-694
c0 -231 113 -304 250 -304c190 0 288 90 328 213v785z" />
    <glyph glyph-name="ugrave" unicode="&#xf9;" horiz-adv-x="1125" 
d="M646 1257h-109l-227 279h145zM850 1082h120v-1082h-115l-3 137c-67 -98 -179 -157 -344 -157c-212 0 -356 114 -356 410v692h120v-694c0 -231 113 -304 250 -304c190 0 288 90 328 213v785z" />
    <glyph glyph-name="v" unicode="v" horiz-adv-x="985" 
d="M822 1082h124l-405 -1082h-97l-406 1082h124l332 -918z" />
    <glyph glyph-name="w" unicode="w" horiz-adv-x="1545" 
d="M1350 1082h124l-315 -1082h-102l-279 859l-12 59l-14 -60l-273 -858h-102l-314 1082h123l230 -833l18 -91l23 96l260 828h103l256 -821l29 -113l22 104z" />
    <glyph glyph-name="x" unicode="x" horiz-adv-x="997" 
d="M496 644l293 438h142l-367 -531l382 -551h-140l-309 458l-307 -458h-142l383 551l-367 531h141z" />
    <glyph glyph-name="y" unicode="y" horiz-adv-x="974" 
d="M815 1082h129l-458 -1256c-37 -98 -105 -263 -303 -263c-26 0 -74 7 -92 13v100c15 -4 50 -7 61 -7c130 0 191 67 236 196l53 144l-408 1073h130l337 -910z" />
    <glyph glyph-name="yacute" unicode="&#xfd;" horiz-adv-x="974" 
d="M781 1536l-231 -279h-105l191 279h145zM815 1082h129l-458 -1256c-37 -98 -105 -263 -303 -263c-26 0 -74 7 -92 13v100c15 -4 50 -7 61 -7c130 0 191 67 236 196l53 144l-408 1073h130l337 -910z" />
    <glyph glyph-name="ydieresis" unicode="&#xff;" horiz-adv-x="974" 
d="M297 1317c-52 0 -82 35 -82 80s30 80 82 80c51 0 83 -35 83 -80s-32 -80 -83 -80zM734 1317c-51 0 -82 34 -82 79s31 81 82 81c52 0 83 -36 83 -81s-31 -79 -83 -79zM815 1082h129l-458 -1256c-37 -98 -105 -263 -303 -263c-26 0 -74 7 -92 13v100c15 -4 50 -7 61 -7
c130 0 191 67 236 196l53 144l-408 1073h130l337 -910z" />
    <glyph glyph-name="z" unicode="z" horiz-adv-x="997" 
d="M237 102h702v-102h-851v89l655 890h-635v103h786v-88z" />
    <glyph glyph-name="g.alt" horiz-adv-x="1079" 
d="M619 187c235 0 391 -94 391 -290c0 -153 -186 -335 -516 -335c-284 0 -434 128 -434 281c0 137 97 232 206 282c-40 28 -66 70 -66 132c0 91 52 149 103 189c-113 60 -183 166 -183 285v22c0 202 169 349 406 349c52 0 101 -7 145 -20h338l2 -99h-171
c59 -60 92 -140 92 -230v-22c0 -185 -167 -339 -404 -339c-52 0 -100 7 -144 20c-34 -25 -73 -66 -73 -128c0 -77 61 -97 127 -97h181zM240 753v-22c0 -117 113 -237 288 -237c173 0 284 120 284 237v22c0 131 -113 247 -286 247c-172 0 -286 -116 -286 -247zM494 -337
c255 0 396 130 396 234c0 111 -75 188 -271 188h-199c-17 0 -34 1 -51 3c-103 -28 -189 -122 -189 -227c0 -108 98 -198 314 -198z" />
    <glyph glyph-name="k.alt" horiz-adv-x="1006" 
d="M854 0l-436 528h-139v-528h-120v1536h120v-906h127l403 452h145l-437 -493l482 -589h-145z" />
    <glyph glyph-name="k.alt2" horiz-adv-x="982" 
d="M791 0l-494 517h-18v-517h-120v1560h120v-941h11l460 463h157l-507 -508l541 -574h-150z" />
    <glyph glyph-name="b.ss06" horiz-adv-x="1134" 
d="M613 1102c264 0 435 -215 435 -550v-21c0 -324 -172 -552 -433 -552c-160 0 -273 66 -345 174l-12 -153h-103v1536h120v-610c72 110 182 176 338 176zM927 531v21c0 255 -117 446 -337 446c-180 0 -270 -107 -315 -221v-489c50 -115 151 -204 317 -204
c218 0 335 194 335 447z" />
    <glyph glyph-name="c.ss06" horiz-adv-x="1068" 
d="M870 335h115c-10 -207 -196 -356 -416 -356c-303 0 -473 237 -473 541v42c0 304 170 540 472 540c231 0 407 -149 417 -384h-115c-10 175 -139 282 -302 282c-246 0 -352 -209 -352 -438v-42c0 -231 105 -439 353 -439c151 0 290 89 301 254z" />
    <glyph glyph-name="d.ss06" horiz-adv-x="1145" 
d="M867 1536h120v-1536h-107l-9 147c-71 -104 -183 -168 -340 -168c-255 0 -435 228 -435 551v21c0 336 180 551 437 551c153 0 263 -64 334 -171v605zM554 84c162 0 260 83 313 195v511c-47 109 -138 208 -311 208c-220 0 -340 -191 -340 -447v-21
c0 -252 120 -446 338 -446z" />
    <glyph glyph-name="g.ss06" horiz-adv-x="1143" 
d="M885 1082h102v-1036c0 -299 -162 -478 -440 -478c-102 0 -240 29 -336 87l36 92c88 -49 186 -77 298 -77c217 0 322 138 322 372v99c-72 -100 -183 -162 -336 -162c-258 0 -435 228 -435 551v21c0 336 177 551 437 551c157 0 268 -67 340 -181zM553 84
c165 0 263 85 314 200v500c-45 111 -135 214 -312 214c-220 0 -339 -191 -339 -447v-21c0 -252 119 -446 337 -446z" />
    <glyph glyph-name="o.ss06" horiz-adv-x="1155" 
d="M90 557c0 315 202 545 487 545c288 0 488 -230 488 -545v-32c0 -316 -200 -546 -486 -546c-287 0 -489 230 -489 546v32zM210 525c0 -238 139 -444 369 -444c226 0 366 206 366 444v32c0 233 -140 443 -368 443s-367 -210 -367 -443v-32z" />
    <glyph glyph-name="p.ss06" horiz-adv-x="1142" 
d="M612 1102c264 0 435 -215 435 -551v-21c0 -323 -171 -551 -433 -551c-153 0 -266 60 -339 157v-552h-120v1498h101l14 -157c73 111 186 177 342 177zM927 530v21c0 256 -122 447 -342 447c-173 0 -263 -98 -310 -206v-522c53 -109 151 -189 312 -189
c218 0 340 197 340 449z" />
    <glyph glyph-name="q.ss06" horiz-adv-x="1150" 
d="M882 1082h104v-1498h-119v550c-73 -96 -184 -155 -334 -155c-262 0 -437 222 -437 546v21c0 335 175 556 439 556c152 0 263 -63 336 -170zM556 81c158 0 257 80 311 189v528c-49 105 -142 202 -309 202c-220 0 -342 -199 -342 -454v-21c0 -253 122 -444 340 -444z" />
    <glyph glyph-name="e.ss07" horiz-adv-x="1059" 
d="M982 534h-772v-24c0 -237 156 -429 388 -429c123 0 219 39 301 111l43 -83c-68 -67 -175 -130 -349 -130c-293 0 -503 223 -503 531v54c0 328 217 538 464 538c275 0 428 -188 428 -466v-102zM554 1000c-185 0 -317 -145 -340 -364h648v29c0 182 -105 335 -308 335z" />
    <glyph glyph-name="g.ss07" horiz-adv-x="1137" 
d="M879 1082h101v-1045c0 -294 -161 -469 -439 -469c-98 0 -227 25 -318 74l35 96c84 -44 175 -68 281 -68c217 0 321 134 321 363v108c-71 -100 -182 -162 -336 -162c-257 0 -415 222 -415 546v21c0 335 157 556 417 556c158 0 269 -67 340 -181zM547 84
c165 0 262 85 313 200v500c-45 111 -135 214 -311 214c-220 0 -320 -197 -320 -452v-21c0 -253 100 -441 318 -441z" />
    <glyph glyph-name="f_f" horiz-adv-x="1356" 
d="M243 1217c0 219 121 340 319 340c42 0 86 -5 128 -17l-9 -100c-33 8 -65 12 -110 12c-130 0 -209 -85 -209 -235v-135h259v-98h-259v-984h-119v984h-180v98h180v135zM1249 1452c-130 0 -209 -85 -209 -235v-135h259v-98h-259v-984h-119v984h-180v98h180v135
c0 219 121 340 319 340c42 0 86 -5 128 -17l-9 -100c-33 8 -65 12 -110 12z" />
    <glyph glyph-name="f_f_i" horiz-adv-x="1696" 
d="M943 1197v-115h254v-98h-254v-984h-120v984h-461v-984h-119v984h-180v98h180v135c0 219 121 340 319 340c42 0 86 -5 128 -17l-9 -100c-33 8 -65 12 -110 12c-130 0 -209 -85 -209 -235v-135h461v115c0 232 137 360 360 360c89 0 181 -20 275 -59l-19 -103
c-70 31 -143 53 -249 53c-162 0 -247 -88 -247 -251zM1404 1082h119v-1082h-119v1082z" />
    <glyph glyph-name="f_f_l" horiz-adv-x="1696" 
d="M1150 1557c92 0 243 -30 373 -61v-1496h-119v1422c-92 18 -174 30 -246 30c-136 0 -215 -85 -215 -235v-135h258v-98h-258v-984h-120v984h-461v-984h-119v984h-180v98h180v135c0 219 121 340 319 340c42 0 86 -5 128 -17l-9 -100c-33 8 -65 12 -110 12
c-130 0 -209 -85 -209 -235v-135h461v135c0 219 121 340 327 340z" />
    <glyph glyph-name="f_l" horiz-adv-x="1115" 
d="M569 1557c92 0 243 -30 374 -61v-1496h-120v1422c-92 18 -173 30 -246 30c-136 0 -215 -85 -215 -235v-135h259v-98h-259v-984h-119v984h-180v98h180v135c0 219 121 340 326 340z" />
    <glyph glyph-name="fi" unicode="&#xfb01;" horiz-adv-x="1101" 
d="M348 1197v-115h254v-98h-254v-984h-120v984h-179v98h179v115c0 232 137 360 360 360c90 0 181 -20 275 -59l-19 -103c-70 31 -143 53 -249 53c-162 0 -247 -88 -247 -251zM809 1082h120v-1082h-120v1082z" />
    <glyph glyph-name="A.smcp" horiz-adv-x="1108" 
d="M960 0l-123 311h-565l-124 -311h-124l474 1165h114l471 -1165h-123zM313 413h483l-241 609z" />
    <glyph glyph-name="Aacute.smcp" horiz-adv-x="1108" 
d="M823 1564l-231 -279h-105l191 279h145zM960 0l-123 311h-565l-124 -311h-124l474 1165h114l471 -1165h-123zM313 413h483l-241 609z" />
    <glyph glyph-name="Acircumflex.smcp" horiz-adv-x="1108" 
d="M555 1470l-167 -183h-108v12l238 255h76l240 -257v-10h-110zM960 0l-123 311h-565l-124 -311h-124l474 1165h114l471 -1165h-123zM313 413h483l-241 609z" />
    <glyph glyph-name="Adieresis.smcp" horiz-adv-x="1108" 
d="M339 1345c-52 0 -82 35 -82 80s30 80 82 80c51 0 83 -35 83 -80s-32 -80 -83 -80zM776 1345c-51 0 -82 34 -82 79s31 81 82 81c52 0 83 -36 83 -81s-31 -79 -83 -79zM960 0l-123 311h-565l-124 -311h-124l474 1165h114l471 -1165h-123zM313 413h483l-241 609z" />
    <glyph glyph-name="Agrave.smcp" horiz-adv-x="1108" 
d="M628 1285h-109l-227 279h145zM960 0l-123 311h-565l-124 -311h-124l474 1165h114l471 -1165h-123zM313 413h483l-241 609z" />
    <glyph glyph-name="Aring.smcp" horiz-adv-x="1108" 
d="M557 1242c-109 0 -193 80 -193 187s84 191 193 191c108 0 193 -84 193 -191s-85 -187 -193 -187zM557 1548c-68 0 -117 -52 -117 -119c0 -64 49 -115 117 -115s116 50 116 115c0 67 -48 119 -116 119zM960 0l-123 311h-565l-124 -311h-124l474 1165h114l471 -1165h-123z
M313 413h483l-241 609z" />
    <glyph glyph-name="Atilde.smcp" horiz-adv-x="1108" 
d="M425 1421c-62 0 -111 -45 -111 -119l-89 4c0 127 85 212 195 212c126 0 169 -110 278 -110c61 0 110 48 110 122l90 -6c0 -129 -87 -213 -196 -213c-140 0 -163 110 -277 110zM960 0l-123 311h-565l-124 -311h-124l474 1165h114l471 -1165h-123zM313 413h483l-241 609z
" />
    <glyph glyph-name="AE.smcp" horiz-adv-x="1573" 
d="M889 101h614v-101h-731l-6 324h-433l-186 -324h-132l687 1165h781v-101h-610l7 -408h527v-101h-526zM392 426h373l-11 631z" />
    <glyph glyph-name="B.smcp" horiz-adv-x="1084" 
d="M751 606c147 -30 237 -147 237 -278c0 -215 -161 -328 -405 -328h-429v1165h370c259 0 420 -97 420 -309c0 -117 -69 -211 -193 -250zM524 1062h-250v-414h265c182 0 285 69 285 206c0 141 -104 208 -300 208zM583 102c180 0 286 84 286 225c0 126 -88 224 -278 224h-317
v-449h309z" />
    <glyph glyph-name="C.smcp" horiz-adv-x="1145" 
d="M1049 367c-25 -238 -186 -383 -464 -383c-289 0 -476 211 -476 530v136c0 319 188 531 482 531c272 0 433 -146 458 -386h-119c-24 181 -127 284 -339 284c-227 0 -362 -166 -362 -428v-137c0 -255 128 -429 356 -429c214 0 320 94 345 282h119z" />
    <glyph glyph-name="Ccedilla.smcp" horiz-adv-x="1145" 
d="M585 85c214 0 320 94 345 282h119c-24 -224 -168 -366 -416 -382l-10 -56c82 -11 165 -52 165 -171s-107 -199 -294 -199l-7 77c99 0 201 36 201 121c0 77 -57 98 -175 109l26 120c-263 21 -430 226 -430 528v136c0 319 188 531 482 531c272 0 433 -146 458 -386h-119
c-24 181 -127 284 -339 284c-227 0 -362 -166 -362 -428v-137c0 -255 128 -429 356 -429z" />
    <glyph glyph-name="D.smcp" horiz-adv-x="1152" 
d="M508 1165c315 0 538 -213 538 -534v-98c0 -321 -222 -533 -544 -533h-348v1165h354zM927 533v100c0 264 -164 429 -419 429h-234v-960h228c263 0 425 172 425 431z" />
    <glyph glyph-name="Eth.smcp" horiz-adv-x="1152" 
d="M508 1165c315 0 538 -213 538 -534v-98c0 -321 -222 -533 -544 -533h-348v540h-199v102h199v523h354zM927 533v100c0 264 -164 429 -419 429h-234v-420h292v-102h-292v-438h228c263 0 425 172 425 431z" />
    <glyph glyph-name="E.smcp" horiz-adv-x="1000" 
d="M274 102h665v-102h-785v1165h781v-103h-661v-407h577v-102h-577v-451z" />
    <glyph glyph-name="Eacute.smcp" horiz-adv-x="1000" 
d="M801 1564l-231 -279h-105l191 279h145zM274 102h665v-102h-785v1165h781v-103h-661v-407h577v-102h-577v-451z" />
    <glyph glyph-name="Ecircumflex.smcp" horiz-adv-x="1000" 
d="M533 1470l-167 -183h-108v12l238 255h76l240 -257v-10h-110zM274 102h665v-102h-785v1165h781v-103h-661v-407h577v-102h-577v-451z" />
    <glyph glyph-name="Edieresis.smcp" horiz-adv-x="1000" 
d="M317 1345c-52 0 -82 35 -82 80s30 80 82 80c51 0 83 -35 83 -80s-32 -80 -83 -80zM754 1345c-51 0 -82 34 -82 79s31 81 82 81c52 0 83 -36 83 -81s-31 -79 -83 -79zM274 102h665v-102h-785v1165h781v-103h-661v-407h577v-102h-577v-451z" />
    <glyph glyph-name="Egrave.smcp" horiz-adv-x="1000" 
d="M606 1285h-109l-227 279h145zM274 102h665v-102h-785v1165h781v-103h-661v-407h577v-102h-577v-451z" />
    <glyph glyph-name="F.smcp" horiz-adv-x="988" 
d="M934 1062h-660v-426h576v-103h-576v-533h-120v1165h780v-103z" />
    <glyph glyph-name="G.smcp" horiz-adv-x="1202" 
d="M1066 139c-45 -59 -176 -155 -439 -155c-298 0 -506 206 -506 537v131c0 325 189 529 489 529c283 0 428 -150 455 -351h-119c-23 135 -115 249 -335 249c-237 0 -371 -168 -371 -425v-133c0 -267 153 -436 389 -436c184 0 283 57 318 95v284h-329v98h448v-423z" />
    <glyph glyph-name="H.smcp" horiz-adv-x="1245" 
d="M970 1165h120v-1165h-120v525h-696v-525h-120v1165h120v-538h696v538z" />
    <glyph glyph-name="I.smcp" horiz-adv-x="474" 
d="M297 0h-120v1165h120v-1165z" />
    <glyph glyph-name="Iacute.smcp" horiz-adv-x="474" 
d="M359 1564h145l-231 -279h-105zM297 0h-120v1165h120v-1165z" />
    <glyph glyph-name="Icircumflex.smcp" horiz-adv-x="474" 
d="M515 1297v-10h-110l-169 183l-167 -183h-108v12l238 255h76zM297 0h-120v1165h120v-1165z" />
    <glyph glyph-name="Idieresis.smcp" horiz-adv-x="474" 
d="M20 1505c51 0 83 -35 83 -80s-32 -80 -83 -80c-52 0 -82 35 -82 80s30 80 82 80zM457 1505c52 0 83 -36 83 -81s-31 -79 -83 -79c-51 0 -82 34 -82 79s31 81 82 81zM297 0h-120v1165h120v-1165z" />
    <glyph glyph-name="Igrave.smcp" horiz-adv-x="474" 
d="M309 1285h-109l-227 279h145zM297 0h-120v1165h120v-1165z" />
    <glyph glyph-name="J.smcp" horiz-adv-x="971" 
d="M703 1165h121v-828c0 -220 -157 -353 -371 -353c-230 0 -394 110 -394 342h120c0 -161 103 -241 274 -241c144 0 250 95 250 252v828z" />
    <glyph glyph-name="K.smcp" horiz-adv-x="1112" 
d="M937 0l-491 565l-172 -159v-406h-120v1165h120v-613l165 167l453 446h152l-513 -519l555 -646h-149z" />
    <glyph glyph-name="L.smcp" horiz-adv-x="930" 
d="M274 102h612v-102h-732v1165h120v-1063z" />
    <glyph glyph-name="M.smcp" horiz-adv-x="1525" 
d="M1370 1165v-1165h-119v477l11 541l-456 -1018h-89l-455 1015l12 -538v-477h-120v1165h158l450 -999l449 999h159z" />
    <glyph glyph-name="N.smcp" horiz-adv-x="1249" 
d="M1094 0h-119l-701 978v-978h-120v1165h120l701 -976v976h119v-1165z" />
    <glyph glyph-name="Ntilde.smcp" horiz-adv-x="1249" 
d="M966 1524c0 -129 -87 -213 -196 -213c-140 0 -163 110 -277 110c-62 0 -111 -45 -111 -119l-89 4c0 127 85 212 195 212c126 0 169 -110 278 -110c61 0 110 48 110 122zM1094 0h-119l-701 978v-978h-120v1165h120l701 -976v976h119v-1165z" />
    <glyph glyph-name="O.smcp" horiz-adv-x="1194" 
d="M1088 525c0 -331 -193 -541 -491 -541c-294 0 -492 210 -492 541v114c0 331 196 542 491 542c298 0 492 -211 492 -542v-114zM970 641c0 269 -138 436 -374 436c-232 0 -372 -167 -372 -436v-116c0 -270 142 -438 373 -438c237 0 373 168 373 438v116z" />
    <glyph glyph-name="Oacute.smcp" horiz-adv-x="1194" 
d="M717 1564h145l-231 -279h-105zM1088 525c0 -331 -193 -541 -491 -541c-294 0 -492 210 -492 541v114c0 331 196 542 491 542c298 0 492 -211 492 -542v-114zM970 641c0 269 -138 436 -374 436c-232 0 -372 -167 -372 -436v-116c0 -270 142 -438 373 -438
c237 0 373 168 373 438v116z" />
    <glyph glyph-name="Ocircumflex.smcp" horiz-adv-x="1194" 
d="M873 1297v-10h-110l-169 183l-167 -183h-108v12l238 255h76zM1088 525c0 -331 -193 -541 -491 -541c-294 0 -492 210 -492 541v114c0 331 196 542 491 542c298 0 492 -211 492 -542v-114zM970 641c0 269 -138 436 -374 436c-232 0 -372 -167 -372 -436v-116
c0 -270 142 -438 373 -438c237 0 373 168 373 438v116z" />
    <glyph glyph-name="Odieresis.smcp" horiz-adv-x="1194" 
d="M378 1505c51 0 83 -35 83 -80s-32 -80 -83 -80c-52 0 -82 35 -82 80s30 80 82 80zM815 1505c52 0 83 -36 83 -81s-31 -79 -83 -79c-51 0 -82 34 -82 79s31 81 82 81zM1088 525c0 -331 -193 -541 -491 -541c-294 0 -492 210 -492 541v114c0 331 196 542 491 542
c298 0 492 -211 492 -542v-114zM970 641c0 269 -138 436 -374 436c-232 0 -372 -167 -372 -436v-116c0 -270 142 -438 373 -438c237 0 373 168 373 438v116z" />
    <glyph glyph-name="Ograve.smcp" horiz-adv-x="1194" 
d="M667 1285h-109l-227 279h145zM1088 525c0 -331 -193 -541 -491 -541c-294 0 -492 210 -492 541v114c0 331 196 542 491 542c298 0 492 -211 492 -542v-114zM970 641c0 269 -138 436 -374 436c-232 0 -372 -167 -372 -436v-116c0 -270 142 -438 373 -438
c237 0 373 168 373 438v116z" />
    <glyph glyph-name="Oslash.smcp" horiz-adv-x="1194" 
d="M960 1028c82 -94 128 -227 128 -389v-114c0 -331 -193 -541 -491 -541c-108 0 -203 28 -280 81l-87 -131h-103l124 186c-93 94 -146 233 -146 405v114c0 331 196 542 491 542c118 0 220 -33 300 -94l83 124h103zM224 525c0 -129 32 -234 91 -309l521 780
c-62 52 -142 81 -240 81c-232 0 -372 -167 -372 -436v-116zM970 525v116c0 118 -26 216 -76 289l-517 -775c59 -44 133 -68 220 -68c237 0 373 168 373 438z" />
    <glyph glyph-name="Otilde.smcp" horiz-adv-x="1194" 
d="M937 1524c0 -129 -87 -213 -196 -213c-140 0 -163 110 -277 110c-62 0 -111 -45 -111 -119l-89 4c0 127 85 212 195 212c126 0 169 -110 278 -110c61 0 110 48 110 122zM1088 525c0 -331 -193 -541 -491 -541c-294 0 -492 210 -492 541v114c0 331 196 542 491 542
c298 0 492 -211 492 -542v-114zM970 641c0 269 -138 436 -374 436c-232 0 -372 -167 -372 -436v-116c0 -270 142 -438 373 -438c237 0 373 168 373 438v116z" />
    <glyph glyph-name="P.smcp" horiz-adv-x="1089" 
d="M586 1165c276 0 426 -146 426 -355c0 -216 -149 -347 -426 -347h-312v-463h-120v1165h432zM586 566c216 0 306 105 306 243c0 136 -90 253 -306 253h-312v-496h312z" />
    <glyph glyph-name="Thorn.smcp" horiz-adv-x="989" 
d="M486 950c276 0 426 -145 426 -355c0 -216 -149 -347 -426 -347h-212v-248h-120v1165h120v-215h212zM486 351c216 0 306 105 306 243c0 137 -90 253 -306 253h-212v-496h212z" />
    <glyph glyph-name="Q.smcp" horiz-adv-x="1194" 
d="M1085 525c0 -223 -87 -392 -236 -478l221 -179l-81 -73l-253 207c-44 -12 -92 -18 -142 -18c-294 0 -493 210 -493 541v114c0 331 197 542 491 542c299 0 493 -211 493 -542v-114zM594 87c237 0 373 168 373 438v116c0 269 -138 436 -375 436c-231 0 -371 -167 -371 -436
v-116c0 -270 142 -438 373 -438z" />
    <glyph glyph-name="R.smcp" horiz-adv-x="1123" 
d="M738 496l308 -486v-10h-127l-293 469h-354v-469h-120v1165h413c262 0 429 -128 429 -351c0 -158 -103 -274 -256 -318zM272 570h315c190 0 287 112 287 240c0 152 -109 252 -309 252h-293v-492z" />
    <glyph glyph-name="S.smcp" horiz-adv-x="1049" 
d="M533 536c-257 63 -418 151 -418 340c0 183 176 305 424 305c263 0 432 -152 432 -350h-119c0 143 -114 248 -314 248c-199 0 -304 -91 -304 -201c0 -106 81 -174 334 -236c254 -63 411 -158 411 -351s-183 -307 -433 -307c-226 0 -471 103 -471 355h119
c0 -189 182 -255 352 -255c192 0 313 84 313 206c0 119 -78 186 -326 246z" />
    <glyph glyph-name="uni1E9E.smcp" horiz-adv-x="1084" 
d="M617 664c251 -11 386 -128 386 -317c0 -234 -155 -367 -396 -367c-79 0 -158 17 -229 54l40 99c45 -26 111 -52 189 -52c169 0 277 94 277 264c0 143 -96 226 -322 226h-74v94l279 313c-50 57 -129 104 -233 104c-189 0 -261 -120 -261 -331v-751h-119v753
c1 270 108 428 380 428c165 0 280 -74 380 -187z" />
    <glyph glyph-name="T.smcp" horiz-adv-x="1057" 
d="M1013 1165v-103h-425v-1062h-120v1062h-425v103h970z" />
    <glyph glyph-name="U.smcp" horiz-adv-x="1160" 
d="M1025 1165v-785c0 -263 -197 -396 -444 -396c-254 0 -444 133 -444 396v785h118v-785c0 -196 136 -295 326 -295c189 0 324 99 324 295v785h120z" />
    <glyph glyph-name="Uacute.smcp" horiz-adv-x="1160" 
d="M709 1564h145l-231 -279h-105zM1025 1165v-785c0 -263 -197 -396 -444 -396c-254 0 -444 133 -444 396v785h118v-785c0 -196 136 -295 326 -295c189 0 324 99 324 295v785h120z" />
    <glyph glyph-name="Ucircumflex.smcp" horiz-adv-x="1160" 
d="M865 1297v-10h-110l-169 183l-167 -183h-108v12l238 255h76zM1025 1165v-785c0 -263 -197 -396 -444 -396c-254 0 -444 133 -444 396v785h118v-785c0 -196 136 -295 326 -295c189 0 324 99 324 295v785h120z" />
    <glyph glyph-name="Udieresis.smcp" horiz-adv-x="1160" 
d="M370 1505c51 0 83 -35 83 -80s-32 -80 -83 -80c-52 0 -82 35 -82 80s30 80 82 80zM807 1505c52 0 83 -36 83 -81s-31 -79 -83 -79c-51 0 -82 34 -82 79s31 81 82 81zM1025 1165v-785c0 -263 -197 -396 -444 -396c-254 0 -444 133 -444 396v785h118v-785
c0 -196 136 -295 326 -295c189 0 324 99 324 295v785h120z" />
    <glyph glyph-name="Ugrave.smcp" horiz-adv-x="1160" 
d="M659 1285h-109l-227 279h145zM1025 1165v-785c0 -263 -197 -396 -444 -396c-254 0 -444 133 -444 396v785h118v-785c0 -196 136 -295 326 -295c189 0 324 99 324 295v785h120z" />
    <glyph glyph-name="V.smcp" horiz-adv-x="1092" 
d="M939 1165h129l-463 -1165h-118l-462 1165h129l367 -952l25 -89l26 88z" />
    <glyph glyph-name="W.smcp" horiz-adv-x="1575" 
d="M1410 1165h121l-316 -1165h-117l-283 935l-22 86l-21 -86l-289 -935h-116l-316 1165h121l227 -877l32 -152l36 142l271 887h111l267 -888l36 -141l32 153z" />
    <glyph glyph-name="X.smcp" horiz-adv-x="1082" 
d="M539 683l343 482h144l-413 -575l428 -590h-143l-358 496l-355 -496h-143l427 590l-414 575h143z" />
    <glyph glyph-name="Y.smcp" horiz-adv-x="1060" 
d="M1036 1165l-449 -743v-422h-120v429l-445 736h136l371 -635l371 635h136z" />
    <glyph glyph-name="Yacute.smcp" horiz-adv-x="1060" 
d="M795 1564l-231 -279h-105l191 279h145zM1036 1165l-449 -743v-422h-120v429l-445 736h136l371 -635l371 635h136z" />
    <glyph glyph-name="Z.smcp" horiz-adv-x="1056" 
d="M229 102h753v-102h-906v84l726 979h-705v102h859v-80z" />
    <glyph glyph-name="ordfeminine" unicode="&#xaa;" horiz-adv-x="907" 
d="M761 705h-112c-9 29 -16 61 -20 94c-44 -57 -120 -108 -222 -108c-161 0 -249 87 -249 218c0 146 114 232 329 232h139v60c0 113 -54 179 -162 179c-118 0 -192 -47 -192 -143l-108 6c0 135 119 233 300 233c161 0 271 -93 271 -276v-314c0 -65 8 -123 26 -181zM427 787
c78 0 163 51 199 104v167h-138c-146 0 -222 -53 -222 -145c0 -76 48 -126 161 -126z" />
    <glyph glyph-name="ordmasculine" unicode="&#xba;" horiz-adv-x="923" 
d="M135 1132c0 201 125 344 323 344c202 0 324 -143 324 -344v-99c0 -200 -122 -343 -322 -343s-325 143 -325 343v99zM244 1033c0 -138 67 -247 216 -247c144 0 214 109 214 247v99c0 138 -70 248 -216 248c-144 0 -214 -110 -214 -248v-99z" />
    <glyph glyph-name="alpha" unicode="&#x3b1;" horiz-adv-x="1154" 
d="M1129 95l17 -92c-32 -21 -64 -24 -97 -24c-103 0 -166 56 -184 197c-69 -121 -181 -197 -341 -197c-261 0 -413 214 -413 532v21c0 341 151 570 415 570c158 0 268 -77 336 -205l14 185h102v-807c0 -148 44 -188 102 -188c19 0 34 4 49 8zM547 81c167 0 260 105 312 244
v410c-49 138 -142 265 -310 265c-220 0 -317 -207 -317 -468v-21c0 -247 97 -430 315 -430z" />
    <glyph glyph-name="alpha.alt" horiz-adv-x="1195" 
d="M1077 0h-118l-49 311c-57 -194 -185 -332 -386 -332c-261 0 -413 214 -413 532v21c0 341 151 570 415 570c197 0 321 -134 381 -332l45 312h118l-97 -542zM868 495v79c-28 189 -117 426 -319 426c-220 0 -317 -207 -317 -468v-21c0 -247 97 -430 315 -430
c179 0 285 186 321 414z" />
    <glyph glyph-name="uni05F0" unicode="&#x5f0;" horiz-adv-x="1120" 
d="M253 0v1066h-153v101h275v-1167h-122zM813 0v1066h-153v101h275v-1167h-122z" />
    <glyph glyph-name="uni05F1" unicode="&#x5f1;" horiz-adv-x="1140" 
d="M253 0v1066h-153v101h275v-1167h-122zM847 523v543h-229v101h351v-644h-122z" />
    <glyph glyph-name="uni05F2" unicode="&#x5f2;" horiz-adv-x="1160" 
d="M287 523v543h-229v101h351v-644h-122zM867 523v543h-229v101h351v-644h-122z" />
    <glyph glyph-name="uniFB4F" unicode="&#xfb4f;" horiz-adv-x="1158" 
d="M1052 1167l-393 -658l368 -509h-133l-803 1104v415h122v-394l370 -512l331 554h138z" />
    <glyph glyph-name="uni05D0" unicode="&#x5d0;" horiz-adv-x="1271" 
d="M1164 1167l-387 -647l386 -520h-137l-563 760c-97 -52 -144 -147 -144 -285v-475h-119v442c0 194 70 322 212 386l-251 339h137l403 -543l324 543h139z" />
    <glyph glyph-name="uni05D1" unicode="&#x5d1;" horiz-adv-x="1052" 
d="M858 109l144 -14v-95h-936v102h670v620c0 244 -98 344 -341 344h-266v101h270c308 0 459 -145 459 -445v-613z" />
    <glyph glyph-name="uni05D2" unicode="&#x5d2;" horiz-adv-x="760" 
d="M50 -6c-11 0 -22 1 -33 3v115c15 -3 28 -3 41 -3c221 9 351 166 374 353v604h-269v101h389v-609c0 -54 7 -120 18 -172l84 -386h-119l-67 343h-8c-21 -178 -193 -349 -410 -349z" />
    <glyph glyph-name="uni05D3" unicode="&#x5d3;" horiz-adv-x="1020" 
d="M60 1167h899v-101h-191v-1066h-122v1066h-586v101z" />
    <glyph glyph-name="uni05D4" unicode="&#x5d4;" horiz-adv-x="1181" 
d="M893 0v722c0 244 -99 344 -341 344h-393v101h396c309 0 459 -145 459 -445v-722h-121zM163 0v398c0 123 18 181 42 244h104c-19 -64 -27 -132 -27 -244v-398h-119z" />
    <glyph glyph-name="uni05D5" unicode="&#x5d5;" horiz-adv-x="560" 
d="M253 0v1066h-153v101h275v-1167h-122z" />
    <glyph glyph-name="uni05D6" unicode="&#x5d6;" horiz-adv-x="688" 
d="M343 0l-172 1059l-91 12v96h525l-1 -101h-310l175 -1066h-126z" />
    <glyph glyph-name="uni05D7" unicode="&#x5d7;" horiz-adv-x="1216" 
d="M186 0l1 1167h404c311 0 458 -144 458 -449v-718h-121v721c0 244 -98 345 -335 345h-285l-1 -1066h-121z" />
    <glyph glyph-name="uni05D8" unicode="&#x5d8;" horiz-adv-x="1230" 
d="M630 -21c-266 0 -444 181 -444 451v737h121v-738c0 -209 129 -348 323 -348c193 0 322 139 322 348v420c0 148 -58 223 -172 223c-60 0 -112 -15 -174 -44l-25 86c72 40 145 63 224 63c175 0 268 -111 268 -319v-428c0 -270 -177 -451 -443 -451z" />
    <glyph glyph-name="uni05D9" unicode="&#x5d9;" horiz-adv-x="580" 
d="M287 523v543h-229v101h351v-644h-122z" />
    <glyph glyph-name="uni05DA" unicode="&#x5da;" horiz-adv-x="979" 
d="M678 -416v1482h-616v101h737v-1583h-121z" />
    <glyph glyph-name="uni05DB" unicode="&#x5db;" horiz-adv-x="1082" 
d="M415 -15c-98 0 -202 18 -322 54l22 95c115 -33 212 -48 301 -47c228 6 359 128 359 345v634h-651v101h773v-703c0 -318 -186 -481 -482 -479z" />
    <glyph glyph-name="uni05DC" unicode="&#x5dc;" horiz-adv-x="1032" 
d="M944 1167v-75l-448 -1092h-133l445 1066h-717v470h122v-369h731z" />
    <glyph glyph-name="uni05DD" unicode="&#x5dd;" horiz-adv-x="1265" 
d="M180 0v1167h899v-1167h-899zM302 102h656v964h-656v-964z" />
    <glyph glyph-name="uni05DE" unicode="&#x5de;" horiz-adv-x="1264" 
d="M174 0l97 786c15 113 72 217 143 266c8 6 18 10 27 14l-1 5c-69 -11 -162 -36 -267 -70l-32 96c152 53 354 88 505 88c294 0 456 -162 457 -472v-713h-466v101h344v623c0 235 -112 354 -322 354c-141 0 -245 -111 -266 -285l-98 -793h-121z" />
    <glyph glyph-name="uni05DF" unicode="&#x5df;" horiz-adv-x="553" 
d="M247 -416v1482h-154v101h275v-1583h-121z" />
    <glyph glyph-name="uni05E0" unicode="&#x5e0;" horiz-adv-x="698" 
d="M232 -20c-64 0 -121 7 -172 19l7 99c36 -8 88 -13 147 -13c116 0 177 65 177 209v772h-257v101h379v-882c0 -204 -98 -305 -281 -305z" />
    <glyph glyph-name="uni05E1" unicode="&#x5e1;" horiz-adv-x="1267" 
d="M654 -21c-285 0 -477 212 -478 530v142c-1 173 76 335 185 403c5 4 18 9 28 12l-1 4c-51 -5 -143 -28 -246 -58l-25 97c153 45 359 76 513 76c307 0 502 -202 502 -523v-153c0 -318 -191 -530 -478 -530zM654 86c214 0 357 169 357 423v152c0 254 -147 417 -373 417
c-200 0 -334 -164 -341 -422v-147c0 -254 143 -423 357 -423z" />
    <glyph glyph-name="uni05E2" unicode="&#x5e2;" horiz-adv-x="1136" 
d="M829 1167h122v-715c0 -308 -204 -474 -494 -474c-115 0 -247 24 -391 79l34 94c121 -48 230 -73 325 -76c-40 59 -69 118 -90 211l-200 881h122l197 -881c20 -92 39 -151 70 -205c184 27 305 154 305 368v718z" />
    <glyph glyph-name="uni05E3" unicode="&#x5e3;" horiz-adv-x="1159" 
d="M974 1167v-1583h-121v1482h-456c-55 -80 -91 -246 -91 -375v-126c46 -21 95 -27 206 -27v-108c-163 0 -233 13 -325 62l-2 176c-1 137 40 311 103 398h-131v101h817z" />
    <glyph glyph-name="uni05E4" unicode="&#x5e4;" horiz-adv-x="1224" 
d="M548 -17c-104 0 -228 21 -350 62l24 94c119 -36 234 -52 325 -52c233 3 370 125 370 345v634h-525c-55 -80 -92 -219 -92 -348v-103c47 -21 95 -27 207 -27v-108c-164 0 -234 13 -326 62l-2 154c0 137 41 283 104 370h-132v101h887v-706c0 -318 -196 -479 -490 -478z" />
    <glyph glyph-name="uni05E5" unicode="&#x5e5;" horiz-adv-x="1051" 
d="M631 550l28 -41c31 -45 45 -104 45 -186v-739h-116v748c0 59 -9 100 -30 131l-484 704h139l346 -512l302 512h138z" />
    <glyph glyph-name="uni05E6" unicode="&#x5e6;" horiz-adv-x="1076" 
d="M999 1167l-367 -615l333 -482v-70h-834v102h676l-733 1065h139l347 -511l301 511h138z" />
    <glyph glyph-name="uni05E7" unicode="&#x5e7;" horiz-adv-x="1219" 
d="M559 0v101c212 7 353 136 353 335v630h-737v101h859v-729c0 -268 -183 -430 -475 -438zM199 -416v869c0 121 18 179 42 242h104c-20 -64 -27 -131 -27 -242v-869h-119z" />
    <glyph glyph-name="uni05E8" unicode="&#x5e8;" horiz-adv-x="989" 
d="M701 0v836c0 140 -89 230 -228 230h-414v101h410c222 0 354 -127 354 -343v-824h-122z" />
    <glyph glyph-name="uni05E9" unicode="&#x5e9;" horiz-adv-x="1544" 
d="M304 1167v-997c135 -59 286 -92 423 -92c283 0 513 123 513 379v710h119v-718c0 -320 -287 -473 -626 -473c-178 0 -374 43 -547 125v1066h118zM617 292c62 53 92 143 92 269v606h120v-590c0 -135 -31 -221 -109 -295z" />
    <glyph glyph-name="uni05EA" unicode="&#x5ea;" horiz-adv-x="1255" 
d="M631 1167c311 0 458 -144 458 -449v-718h-121l-1 721c0 244 -97 345 -334 345h-174c-54 -70 -91 -207 -91 -346v-423c0 -204 -92 -303 -269 -303c-33 0 -63 3 -97 8v101c25 -3 49 -5 71 -5c128 0 176 63 176 204v412c0 136 39 279 101 352h-238v101h519z" />
    <glyph glyph-name="uniFB1F" unicode="&#xfb1f;" horiz-adv-x="1160" 
d="M287 523v543h-229v101h351v-644h-122zM867 523v543h-229v101h351v-644h-122zM172 -276v75h367v-75h-367z" />
    <glyph glyph-name="uniFB20" unicode="&#xfb20;" horiz-adv-x="1170" 
d="M866 1167h118l-36 -728c-16 -308 -201 -477 -491 -477c-115 0 -247 27 -391 82l34 94c129 -52 245 -76 344 -77h3c-45 62 -76 123 -100 225l-200 881h122l197 -881c21 -97 42 -158 76 -216c171 33 276 159 287 365z" />
    <glyph glyph-name="uniFB21" unicode="&#xfb21;" horiz-adv-x="1763" 
d="M1658 1167l-464 -780l431 -387h-173l-1010 913c-62 -79 -98 -185 -98 -338v-575h-119v584c0 169 56 298 157 383l-221 200h166l777 -699l416 699h138z" />
    <glyph glyph-name="uniFB22" unicode="&#xfb22;" horiz-adv-x="1300" 
d="M60 1167h1179v-93l-228 -19v-1055h-122v1066h-829v101z" />
    <glyph glyph-name="uniFB23" unicode="&#xfb23;" horiz-adv-x="1628" 
d="M1340 0v836c0 140 -89 230 -227 230h-953v101h948c222 0 354 -127 354 -343v-824h-122zM161 0v394c0 115 16 179 36 239l109 16l6 -6c-20 -65 -31 -144 -31 -257v-386h-120z" />
    <glyph glyph-name="uniFB24" unicode="&#xfb24;" horiz-adv-x="1568" 
d="M699 -31c-170 0 -378 23 -606 69l20 101c225 -44 424 -66 582 -66c379 0 566 125 566 367v626h-1139v101h1261v-727c-1 -314 -241 -471 -684 -471z" />
    <glyph glyph-name="uniFB25" unicode="&#xfb25;" horiz-adv-x="1407" 
d="M1320 1167v-75l-635 -1092h-132l613 1066h-1075v453h122v-352h1107z" />
    <glyph glyph-name="uniFB26" unicode="&#xfb26;" horiz-adv-x="1787" 
d="M132 0v1167h1495v-1167h-1495zM254 102h1251v964h-1251v-964z" />
    <glyph glyph-name="uniFB27" unicode="&#xfb27;" horiz-adv-x="1450" 
d="M1162 0v836c0 140 -89 230 -228 230h-875v101h871c222 0 353 -127 353 -343v-824h-121z" />
    <glyph glyph-name="uniFB28" unicode="&#xfb28;" horiz-adv-x="1722" 
d="M1098 1167c310 0 457 -144 457 -449v-718h-121v721c0 244 -97 345 -334 345h-641c-54 -70 -91 -207 -91 -346v-423c0 -204 -92 -303 -269 -303c-33 0 -63 3 -97 8v101c25 -3 49 -5 71 -5c128 0 176 63 176 204v412c0 136 39 279 101 352h-238v101h986z" />
    <glyph glyph-name="uniFB2A" unicode="&#xfb2a;" horiz-adv-x="1544" 
d="M1295 1320c-37 0 -66 32 -66 63c0 37 29 65 66 65c38 0 68 -28 68 -65c0 -36 -30 -63 -68 -63zM304 1167v-997c135 -59 286 -92 423 -92c283 0 513 123 513 379v710h119v-718c0 -320 -287 -473 -626 -473c-178 0 -374 43 -547 125v1066h118zM617 292c62 53 92 143 92 269
v606h120v-590c0 -135 -31 -221 -109 -295z" />
    <glyph glyph-name="uniFB2B" unicode="&#xfb2b;" horiz-adv-x="1544" 
d="M235 1320c-37 0 -66 32 -66 63c0 37 29 65 66 65c38 0 68 -28 68 -65c0 -36 -30 -63 -68 -63zM304 1167v-997c135 -59 286 -92 423 -92c283 0 513 123 513 379v710h119v-718c0 -320 -287 -473 -626 -473c-178 0 -374 43 -547 125v1066h118zM617 292c62 53 92 143 92 269
v606h120v-590c0 -135 -31 -221 -109 -295z" />
    <glyph glyph-name="uniFB2C" unicode="&#xfb2c;" horiz-adv-x="1544" 
d="M1295 1320c-37 0 -66 32 -66 63c0 37 29 65 66 65c38 0 68 -28 68 -65c0 -36 -30 -63 -68 -63zM304 1167v-997c135 -59 286 -92 423 -92c283 0 513 123 513 379v710h119v-718c0 -320 -287 -473 -626 -473c-178 0 -374 43 -547 125v1066h118zM617 292c62 53 92 143 92 269
v606h120v-590c0 -135 -31 -221 -109 -295zM1034 539c-38 0 -67 33 -67 64c0 37 29 65 67 65c37 0 67 -28 67 -65c0 -36 -30 -64 -67 -64z" />
    <glyph glyph-name="uniFB2D" unicode="&#xfb2d;" horiz-adv-x="1544" 
d="M235 1320c-37 0 -66 32 -66 63c0 37 29 65 66 65c38 0 68 -28 68 -65c0 -36 -30 -63 -68 -63zM304 1167v-997c135 -59 286 -92 423 -92c283 0 513 123 513 379v710h119v-718c0 -320 -287 -473 -626 -473c-178 0 -374 43 -547 125v1066h118zM617 292c62 53 92 143 92 269
v606h120v-590c0 -135 -31 -221 -109 -295zM1034 539c-38 0 -67 33 -67 64c0 37 29 65 67 65c37 0 67 -28 67 -65c0 -36 -30 -64 -67 -64z" />
    <glyph glyph-name="uniFB2E" unicode="&#xfb2e;" horiz-adv-x="1271" 
d="M1164 1167l-387 -647l386 -520h-137l-563 760c-97 -52 -144 -147 -144 -285v-475h-119v442c0 194 70 322 212 386l-251 339h137l403 -543l324 543h139zM475 -276v75h367v-75h-367z" />
    <glyph glyph-name="uniFB2F" unicode="&#xfb2f;" horiz-adv-x="1271" 
d="M1164 1167l-387 -647l386 -520h-137l-563 760c-97 -52 -144 -147 -144 -285v-475h-119v442c0 194 70 322 212 386l-251 339h137l403 -543l324 543h139zM482 -276v75h354v-75h-147c6 -106 39 -107 39 -152c0 -37 -29 -64 -66 -64c-38 0 -67 32 -67 64c0 45 34 46 39 152
h-152z" />
    <glyph glyph-name="uniFB30" unicode="&#xfb30;" horiz-adv-x="1271" 
d="M1164 1167l-387 -647l386 -520h-137l-563 760c-97 -52 -144 -147 -144 -285v-475h-119v442c0 194 70 322 212 386l-251 339h137l403 -543l324 543h139zM549 316c37 0 67 -28 67 -65c0 -36 -30 -64 -67 -64c-38 0 -67 33 -67 64c0 37 29 65 67 65z" />
    <glyph glyph-name="uniFB31" unicode="&#xfb31;" horiz-adv-x="1052" 
d="M858 109l144 -14v-95h-936v102h670v620c0 244 -98 344 -341 344h-266v101h270c308 0 459 -145 459 -445v-613zM465 603c0 -36 -30 -64 -67 -64c-38 0 -67 33 -67 64c0 37 29 65 67 65c37 0 67 -28 67 -65z" />
    <glyph glyph-name="uniFB32" unicode="&#xfb32;" horiz-adv-x="760" 
d="M50 -6c-11 0 -22 1 -33 3v115c15 -3 28 -3 41 -3c221 9 351 166 374 353v604h-269v101h389v-609c0 -54 7 -120 18 -172l84 -386h-119l-67 343h-8c-21 -178 -193 -349 -410 -349zM211 539c-38 0 -67 33 -67 64c0 37 29 65 67 65c37 0 67 -28 67 -65c0 -36 -30 -64 -67 -64
z" />
    <glyph glyph-name="uniFB33" unicode="&#xfb33;" horiz-adv-x="1020" 
d="M60 1167h899v-101h-191v-1066h-122v1066h-586v101zM338 539c-38 0 -67 33 -67 64c0 37 29 65 67 65c37 0 67 -28 67 -65c0 -36 -30 -64 -67 -64z" />
    <glyph glyph-name="uniFB34" unicode="&#xfb34;" horiz-adv-x="1181" 
d="M893 0v722c0 244 -99 344 -341 344h-393v101h396c309 0 459 -145 459 -445v-722h-121zM588 539c-38 0 -67 33 -67 64c0 37 29 65 67 65c37 0 67 -28 67 -65c0 -36 -30 -64 -67 -64zM163 0v398c0 123 18 181 42 244h104c-19 -64 -27 -132 -27 -244v-398h-119z" />
    <glyph glyph-name="uniFB35" unicode="&#xfb35;" horiz-adv-x="560" 
d="M253 0v1066h-153v101h275v-1167h-122zM86 539c-38 0 -67 33 -67 64c0 37 29 65 67 65c37 0 67 -28 67 -65c0 -36 -30 -64 -67 -64z" />
    <glyph glyph-name="uniFB36" unicode="&#xfb36;" horiz-adv-x="688" 
d="M343 0l-172 1059l-91 12v96h525l-1 -101h-310l175 -1066h-126zM525 539c-38 0 -67 33 -67 64c0 37 29 65 67 65c37 0 67 -28 67 -65c0 -36 -30 -64 -67 -64z" />
    <glyph glyph-name="uniFB38" unicode="&#xfb38;" horiz-adv-x="1230" 
d="M630 -21c-266 0 -444 181 -444 451v737h121v-738c0 -209 129 -348 323 -348c193 0 322 139 322 348v420c0 148 -58 223 -172 223c-60 0 -112 -15 -174 -44l-25 86c72 40 145 63 224 63c175 0 268 -111 268 -319v-428c0 -270 -177 -451 -443 -451zM636 539
c-38 0 -67 33 -67 64c0 37 29 65 67 65c37 0 67 -28 67 -65c0 -36 -30 -64 -67 -64z" />
    <glyph glyph-name="uniFB39" unicode="&#xfb39;" horiz-adv-x="580" 
d="M287 523v543h-229v101h351v-644h-122zM109 758c-38 0 -67 33 -67 64c0 37 29 65 67 65c37 0 67 -28 67 -65c0 -36 -30 -64 -67 -64z" />
    <glyph glyph-name="uniFB3A" unicode="&#xfb3a;" horiz-adv-x="979" 
d="M678 -416v1482h-616v101h737v-1583h-121zM339 539c-38 0 -67 33 -67 64c0 37 29 65 67 65c37 0 67 -28 67 -65c0 -36 -30 -64 -67 -64z" />
    <glyph glyph-name="uniFB3B" unicode="&#xfb3b;" horiz-adv-x="1082" 
d="M415 -15c-98 0 -202 18 -322 54l22 95c115 -33 212 -48 301 -47c228 6 359 128 359 345v634h-651v101h773v-703c0 -318 -186 -481 -482 -479zM424 539c-38 0 -67 33 -67 64c0 37 29 65 67 65c37 0 67 -28 67 -65c0 -36 -30 -64 -67 -64z" />
    <glyph glyph-name="uniFB3C" unicode="&#xfb3c;" horiz-adv-x="1032" 
d="M944 1167v-75l-448 -1092h-133l445 1066h-717v470h122v-369h731zM398 699c0 -36 -30 -64 -67 -64c-38 0 -67 33 -67 64c0 37 29 65 67 65c37 0 67 -28 67 -65z" />
    <glyph glyph-name="uniFB3E" unicode="&#xfb3e;" horiz-adv-x="1264" 
d="M174 0l97 786c15 113 72 217 143 266c8 6 18 10 27 14l-1 5c-69 -11 -162 -36 -267 -70l-32 96c152 53 354 88 505 88c294 0 456 -162 457 -472v-713h-466v101h344v623c0 235 -112 354 -322 354c-141 0 -245 -111 -266 -285l-98 -793h-121zM669 539c-38 0 -67 33 -67 64
c0 37 29 65 67 65c37 0 67 -28 67 -65c0 -36 -30 -64 -67 -64z" />
    <glyph glyph-name="uniFB40" unicode="&#xfb40;" horiz-adv-x="698" 
d="M232 -20c-64 0 -121 7 -172 19l7 99c36 -8 88 -13 147 -13c116 0 177 65 177 209v772h-257v101h379v-882c0 -204 -98 -305 -281 -305zM180 539c-38 0 -67 33 -67 64c0 37 29 65 67 65c37 0 67 -28 67 -65c0 -36 -30 -64 -67 -64z" />
    <glyph glyph-name="uniFB41" unicode="&#xfb41;" horiz-adv-x="1267" 
d="M654 -21c-285 0 -477 212 -478 530v142c-1 173 76 335 185 403c5 4 18 9 28 12l-1 4c-51 -5 -143 -28 -246 -58l-25 97c153 45 359 76 513 76c307 0 502 -202 502 -523v-153c0 -318 -191 -530 -478 -530zM654 86c214 0 357 169 357 423v152c0 254 -147 417 -373 417
c-200 0 -334 -164 -341 -422v-147c0 -254 143 -423 357 -423zM654 539c-38 0 -67 33 -67 64c0 37 29 65 67 65c37 0 67 -28 67 -65c0 -36 -30 -64 -67 -64z" />
    <glyph glyph-name="uniFB43" unicode="&#xfb43;" horiz-adv-x="1159" 
d="M974 1167v-1583h-121v1482h-456c-55 -80 -91 -246 -91 -375v-126c46 -21 95 -27 206 -27v-108c-163 0 -233 13 -325 62l-2 176c-1 137 40 311 103 398h-131v101h817zM590 713c-38 0 -67 33 -67 64c0 37 29 65 67 65c37 0 67 -28 67 -65c0 -36 -30 -64 -67 -64z" />
    <glyph glyph-name="uniFB44" unicode="&#xfb44;" horiz-adv-x="1224" 
d="M548 -17c-104 0 -228 21 -350 62l24 94c119 -36 234 -52 325 -52c233 3 370 125 370 345v634h-525c-55 -80 -92 -219 -92 -348v-103c47 -21 95 -27 207 -27v-108c-164 0 -234 13 -326 62l-2 154c0 137 41 283 104 370h-132v101h887v-706c0 -318 -196 -479 -490 -478z
M614 733c-38 0 -67 33 -67 64c0 37 29 65 67 65c37 0 67 -28 67 -65c0 -36 -30 -64 -67 -64z" />
    <glyph glyph-name="uniFB46" unicode="&#xfb46;" horiz-adv-x="1076" 
d="M999 1167l-367 -615l333 -482v-70h-834v102h676l-733 1065h139l347 -511l301 511h138zM409 330c0 -36 -30 -64 -67 -64c-38 0 -67 33 -67 64c0 37 29 65 67 65c37 0 67 -28 67 -65z" />
    <glyph glyph-name="uniFB47" unicode="&#xfb47;" horiz-adv-x="1219" 
d="M559 0v101c212 7 353 136 353 335v630h-737v101h859v-729c0 -268 -183 -430 -475 -438zM199 -416v869c0 121 18 179 42 242h104c-20 -64 -27 -131 -27 -242v-869h-119zM612 539c-38 0 -67 33 -67 64c0 37 29 65 67 65c37 0 67 -28 67 -65c0 -36 -30 -64 -67 -64z" />
    <glyph glyph-name="uniFB48" unicode="&#xfb48;" horiz-adv-x="989" 
d="M701 0v836c0 140 -89 230 -228 230h-414v101h410c222 0 354 -127 354 -343v-824h-122zM357 539c-38 0 -67 33 -67 64c0 37 29 65 67 65c37 0 67 -28 67 -65c0 -36 -30 -64 -67 -64z" />
    <glyph glyph-name="uniFB49" unicode="&#xfb49;" horiz-adv-x="1544" 
d="M304 1167v-997c135 -59 286 -92 423 -92c283 0 513 123 513 379v710h119v-718c0 -320 -287 -473 -626 -473c-178 0 -374 43 -547 125v1066h118zM617 292c62 53 92 143 92 269v606h120v-590c0 -135 -31 -221 -109 -295zM1034 539c-38 0 -67 33 -67 64c0 37 29 65 67 65
c37 0 67 -28 67 -65c0 -36 -30 -64 -67 -64z" />
    <glyph glyph-name="uniFB4A" unicode="&#xfb4a;" horiz-adv-x="1255" 
d="M631 1167c311 0 458 -144 458 -449v-718h-121l-1 721c0 244 -97 345 -334 345h-174c-54 -70 -91 -207 -91 -346v-423c0 -204 -92 -303 -269 -303c-33 0 -63 3 -97 8v101c25 -3 49 -5 71 -5c128 0 176 63 176 204v412c0 136 39 279 101 352h-238v101h519zM668 539
c-38 0 -67 33 -67 64c0 37 29 65 67 65c37 0 67 -28 67 -65c0 -36 -30 -64 -67 -64z" />
    <glyph glyph-name="uniFB4B" unicode="&#xfb4b;" horiz-adv-x="560" 
d="M238 1320c-38 0 -67 32 -67 63c0 37 29 65 67 65c37 0 67 -28 67 -65c0 -36 -30 -63 -67 -63zM253 0v1066h-153v101h275v-1167h-122z" />
    <glyph glyph-name="uniFB4C" unicode="&#xfb4c;" horiz-adv-x="1052" 
d="M689 1433v-81h-438v81h438zM858 109l144 -14v-95h-936v102h670v620c0 244 -98 344 -341 344h-266v101h270c308 0 459 -145 459 -445v-613z" />
    <glyph glyph-name="uniFB4D" unicode="&#xfb4d;" horiz-adv-x="1082" 
d="M255 1352v81h438v-81h-438zM415 -15c-98 0 -202 18 -322 54l22 95c115 -33 212 -48 301 -47c228 6 359 128 359 345v634h-651v101h773v-703c0 -318 -186 -481 -482 -479z" />
    <glyph glyph-name="uniFB4E" unicode="&#xfb4e;" horiz-adv-x="1224" 
d="M394 1352v81h438v-81h-438zM548 -17c-104 0 -228 21 -350 62l24 94c119 -36 234 -52 325 -52c233 3 370 125 370 345v634h-525c-55 -80 -92 -219 -92 -348v-103c47 -21 95 -27 207 -27v-108c-164 0 -234 13 -326 62l-2 154c0 137 41 283 104 370h-132v101h887v-706
c0 -318 -196 -479 -490 -478z" />
    <glyph glyph-name="uni05D2.001" horiz-adv-x="760" 
d="M50 -6c-11 0 -22 1 -33 3v115c15 -3 28 -3 41 -3c221 9 351 166 374 353v604h-269v101h389v-609c0 -54 7 -120 18 -172l84 -386h-119l-67 343h-8c-21 -178 -193 -349 -410 -349z" />
    <glyph glyph-name="uni05E8.001" horiz-adv-x="988" 
d="M708 0v836c0 140 -89 230 -228 230h-414v101h410c222 0 354 -127 354 -343v-824h-122z" />
    <glyph glyph-name="uni05E8.002" horiz-adv-x="988" 
d="M708 0v836c0 140 -89 230 -228 230h-414v101h410c222 0 354 -127 354 -343v-824h-122z" />
    <glyph glyph-name="uni05E8.003" horiz-adv-x="988" 
d="M708 0v836c0 140 -89 230 -228 230h-414v101h410c222 0 354 -127 354 -343v-824h-122z" />
    <glyph glyph-name="uni05E8.004" horiz-adv-x="988" 
d="M708 0v836c0 140 -89 230 -228 230h-414v101h410c222 0 354 -127 354 -343v-824h-122z" />
    <glyph glyph-name="zero" unicode="0" horiz-adv-x="1136" 
d="M1015 608c0 -428 -164 -628 -446 -628c-279 0 -449 200 -449 628v245c0 427 168 624 447 624c282 0 448 -197 448 -624v-245zM896 868c0 332 -110 507 -329 507c-217 0 -327 -175 -327 -507v-274c0 -327 112 -512 329 -512c220 0 327 185 327 512v274z" />
    <glyph glyph-name="one" unicode="1" horiz-adv-x="1136" 
d="M694 0h-120v1312l-395 -147v112l495 185h20v-1462z" />
    <glyph glyph-name="two" unicode="2" horiz-adv-x="1136" 
d="M1050 0h-913v93l477 540c179 203 243 321 243 442c0 176 -107 299 -304 299c-203 0 -328 -142 -328 -338h-120c0 241 168 440 448 440c262 0 424 -146 424 -390c0 -176 -138 -358 -286 -526l-407 -458h766v-102z" />
    <glyph glyph-name="three" unicode="3" horiz-adv-x="1136" 
d="M736 746c192 -52 276 -188 276 -350c0 -265 -190 -416 -447 -416c-236 0 -466 138 -466 415h120c0 -185 142 -313 346 -313c206 0 328 110 328 310c0 210 -149 299 -368 299h-121v103h121c224 0 341 127 341 283c0 175 -97 297 -306 297c-183 0 -320 -115 -320 -300h-119
c0 236 187 402 439 402c256 0 425 -145 425 -403c0 -131 -85 -266 -249 -327z" />
    <glyph glyph-name="four" unicode="4" horiz-adv-x="1136" 
d="M1099 470v-102h-227v-368h-120v368h-684v69l673 1019h131v-986h227zM215 470h537v831l-53 -92z" />
    <glyph glyph-name="five" unicode="5" horiz-adv-x="1136" 
d="M219 747l71 709h728v-111h-625l-52 -492c50 36 153 81 274 81c260 0 432 -180 432 -470c0 -279 -133 -484 -436 -484c-231 0 -419 130 -443 403h115c22 -196 138 -301 328 -301c207 0 316 138 316 380c0 206 -119 363 -333 363c-139 0 -210 -41 -281 -105z" />
    <glyph glyph-name="six" unicode="6" horiz-adv-x="1136" 
d="M614 956c279 0 419 -221 419 -478c0 -280 -163 -498 -431 -498c-293 0 -472 242 -472 535v128c0 498 226 824 696 824h18v-104h-18c-348 0 -551 -221 -574 -582c79 111 210 175 362 175zM602 82c195 0 312 176 312 391c0 206 -104 381 -319 381
c-158 0 -304 -105 -345 -242v-99c0 -269 156 -431 352 -431z" />
    <glyph glyph-name="seven" unicode="7" horiz-adv-x="1136" 
d="M1034 1388l-622 -1388h-124l617 1354h-828v102h957v-68z" />
    <glyph glyph-name="eight" unicode="8" horiz-adv-x="1136" 
d="M757 748c165 -58 276 -191 276 -362c0 -265 -203 -406 -463 -406c-262 0 -464 141 -464 406c0 171 108 305 272 362c-142 57 -234 180 -234 334c0 253 181 394 424 394c242 0 427 -141 427 -394c0 -154 -95 -277 -238 -334zM263 1082c0 -174 128 -284 306 -284
c176 0 307 110 307 284c0 171 -133 292 -308 292c-177 0 -305 -111 -305 -292zM570 82c200 0 343 109 343 304c0 186 -148 310 -345 310c-200 0 -342 -124 -342 -310c0 -195 142 -304 344 -304z" />
    <glyph glyph-name="nine" unicode="9" horiz-adv-x="1136" 
d="M541 1476c313 0 464 -241 464 -581v-116c0 -432 -151 -790 -677 -790h-26l1 104h25c410 0 549 249 557 582c-80 -118 -212 -198 -366 -198c-272 0 -417 238 -417 488c0 280 163 511 439 511zM534 580c182 0 306 126 351 256v71c0 306 -141 466 -341 466
c-202 0 -324 -188 -324 -403c0 -199 110 -390 314 -390z" />
    <glyph glyph-name="zero.frac" 
d="M651 990c0 -222 -106 -337 -281 -337c-173 0 -283 115 -283 337v137c0 222 108 337 282 337c175 0 282 -115 282 -337v-137zM546 1136c0 154 -60 240 -177 240c-116 0 -177 -86 -177 -240v-155c0 -153 62 -241 178 -241c117 0 176 88 176 241v155z" />
    <glyph glyph-name="four.frac" 
d="M694 940v-89h-127v-187h-105v187h-399l-3 67l397 535h110v-513h127zM174 940h288v383l-30 -50z" />
    <glyph glyph-name="five.frac" 
d="M129 1062l48 391h463v-90h-376l-29 -228c28 15 88 38 160 38c163 0 270 -96 270 -254c0 -147 -86 -266 -280 -266c-136 0 -266 76 -277 223h105c9 -90 80 -136 172 -136c122 0 175 70 175 180c0 102 -67 171 -187 171c-85 0 -123 -23 -161 -51z" />
    <glyph glyph-name="six.frac" 
d="M409 1185c167 0 254 -116 254 -262c0 -152 -107 -270 -273 -270c-178 0 -293 119 -293 299v68c0 285 160 442 429 442h17v-90h-11c-191 0 -315 -92 -330 -279c43 52 116 92 207 92zM388 740c105 0 171 82 171 182s-59 176 -176 176c-83 0 -157 -46 -182 -106v-48
c0 -129 79 -204 187 -204z" />
    <glyph glyph-name="seven.frac" 
d="M659 1393l-366 -729h-111l365 700h-485v89h597v-60z" />
    <glyph glyph-name="eight.frac" 
d="M504 1069c94 -33 155 -102 155 -193c0 -148 -126 -223 -289 -223c-164 0 -290 75 -290 223c0 91 61 161 155 194c-81 32 -133 96 -133 177c0 140 114 217 267 217s268 -77 268 -217c0 -81 -52 -145 -133 -178zM369 1376c-95 0 -162 -50 -162 -133c0 -80 67 -131 163 -131
c95 0 162 51 162 131c0 79 -68 133 -163 133zM370 740c106 0 184 52 184 141c0 88 -80 142 -185 142c-107 0 -184 -54 -184 -142c0 -89 77 -141 185 -141z" />
    <glyph glyph-name="nine.frac" 
d="M356 1464c181 0 285 -118 285 -318v-63c0 -264 -128 -427 -419 -427h-16v87h16c209 0 303 97 312 264c-43 -52 -114 -88 -199 -88c-165 0 -259 117 -259 265c0 153 109 280 280 280zM355 1004c95 0 156 54 180 109v50c0 142 -71 212 -178 212c-109 0 -175 -90 -175 -190
c0 -97 61 -181 173 -181z" />
    <glyph glyph-name="zero.sup" 
d="M651 326c0 -222 -106 -337 -281 -337c-173 0 -283 115 -283 337v137c0 222 108 337 282 337c175 0 282 -115 282 -337v-137zM546 472c0 154 -60 240 -177 240c-116 0 -177 -86 -177 -240v-155c0 -153 62 -241 178 -241c117 0 176 88 176 241v155z" />
    <glyph glyph-name="one.sup" 
d="M464 0h-105v663l-232 -69v90l324 106h13v-790z" />
    <glyph glyph-name="two.sup" 
d="M667 0h-571v76l289 283c100 95 137 158 137 214c0 83 -55 139 -159 139c-121 0 -181 -68 -181 -161h-106c0 136 107 249 285 249c164 0 267 -85 267 -226c0 -102 -81 -188 -185 -288l-213 -198h437v-88z" />
    <glyph glyph-name="three.sup" 
d="M492 404c107 -28 160 -95 160 -188c0 -145 -124 -227 -288 -227c-144 0 -293 72 -293 231h106c0 -84 79 -144 190 -144c115 0 179 55 179 143c0 101 -81 142 -200 142h-78v81h78c121 0 184 59 184 135s-51 135 -168 135c-97 0 -171 -50 -171 -131h-106
c0 133 122 219 276 219c165 0 275 -79 275 -221c0 -74 -52 -142 -144 -175z" />
    <glyph glyph-name="four.sup" 
d="M694 276v-89h-127v-187h-105v187h-399l-3 67l397 535h110v-513h127zM174 276h288v383l-30 -50z" />
    <glyph glyph-name="five.sup" 
d="M129 398l48 391h463v-90h-376l-29 -228c28 15 88 38 160 38c163 0 270 -96 270 -254c0 -147 -86 -266 -280 -266c-136 0 -266 76 -277 223h105c9 -90 80 -136 172 -136c122 0 175 70 175 180c0 102 -67 171 -187 171c-85 0 -123 -23 -161 -51z" />
    <glyph glyph-name="six.sup" 
d="M409 521c167 0 254 -116 254 -262c0 -152 -107 -270 -273 -270c-178 0 -293 119 -293 299v68c0 285 160 442 429 442h17v-90h-11c-191 0 -315 -92 -330 -279c43 52 116 92 207 92zM388 76c105 0 171 82 171 182s-59 176 -176 176c-83 0 -157 -46 -182 -106v-48
c0 -129 79 -204 187 -204z" />
    <glyph glyph-name="seven.sup" 
d="M659 729l-366 -729h-111l365 700h-485v89h597v-60z" />
    <glyph glyph-name="eight.sup" 
d="M504 405c94 -33 155 -102 155 -193c0 -148 -126 -223 -289 -223c-164 0 -290 75 -290 223c0 91 61 161 155 194c-81 32 -133 96 -133 177c0 140 114 217 267 217s268 -77 268 -217c0 -81 -52 -145 -133 -178zM369 712c-95 0 -162 -50 -162 -133c0 -80 67 -131 163 -131
c95 0 162 51 162 131c0 79 -68 133 -163 133zM370 76c106 0 184 52 184 141c0 88 -80 142 -185 142c-107 0 -184 -54 -184 -142c0 -89 77 -141 185 -141z" />
    <glyph glyph-name="nine.sup" 
d="M356 800c181 0 285 -118 285 -318v-63c0 -264 -128 -427 -419 -427h-16v87h16c209 0 303 97 312 264c-43 -52 -114 -88 -199 -88c-165 0 -259 117 -259 265c0 153 109 280 280 280zM355 340c95 0 156 54 180 109v50c0 142 -71 212 -178 212c-109 0 -175 -90 -175 -190
c0 -97 61 -181 173 -181z" />
    <glyph glyph-name="zero.tnum" horiz-adv-x="1273" 
 />
    <glyph glyph-name="one.tnum" horiz-adv-x="981" 
 />
    <glyph glyph-name="two.tnum" horiz-adv-x="1154" 
 />
    <glyph glyph-name="three.tnum" horiz-adv-x="1118" 
 />
    <glyph glyph-name="four.tnum" horiz-adv-x="1228" 
 />
    <glyph glyph-name="five.tnum" horiz-adv-x="1131" 
 />
    <glyph glyph-name="six.tnum" horiz-adv-x="1136" 
d="M607 956c279 0 419 -221 419 -478c0 -280 -163 -498 -431 -498c-293 0 -472 242 -472 535v128c0 498 226 824 696 824h18v-104h-18c-348 0 -551 -221 -574 -582c79 111 210 175 362 175zM595 82c195 0 312 176 312 391c0 206 -104 381 -319 381
c-158 0 -304 -105 -345 -242v-99c0 -269 156 -431 352 -431z" />
    <glyph glyph-name="seven.tnum" horiz-adv-x="1070" 
 />
    <glyph glyph-name="eight.tnum" horiz-adv-x="1136" 
d="M755 748c165 -58 276 -191 276 -362c0 -265 -203 -406 -463 -406c-262 0 -464 141 -464 406c0 171 108 305 272 362c-142 57 -234 180 -234 334c0 253 181 394 424 394c242 0 427 -141 427 -394c0 -154 -95 -277 -238 -334zM261 1082c0 -174 128 -284 306 -284
c176 0 307 110 307 284c0 171 -133 292 -308 292c-177 0 -305 -111 -305 -292zM568 82c200 0 343 109 343 304c0 186 -148 310 -345 310c-200 0 -342 -124 -342 -310c0 -195 142 -304 344 -304z" />
    <glyph glyph-name="nine.tnum" horiz-adv-x="1181" 
 />
    <glyph glyph-name="uni2080" unicode="&#x2080;" 
d="M651 -45c0 -222 -106 -337 -281 -337c-173 0 -283 115 -283 337v137c0 222 108 337 282 337c175 0 282 -115 282 -337v-137zM546 101c0 154 -60 240 -177 240c-116 0 -177 -86 -177 -240v-155c0 -153 62 -241 178 -241c117 0 176 88 176 241v155z" />
    <glyph glyph-name="uni2081" unicode="&#x2081;" 
d="M464 -364h-105v663l-232 -69v90l324 106h13v-790z" />
    <glyph glyph-name="uni2082" unicode="&#x2082;" 
d="M667 -364h-571v76l289 283c100 95 137 158 137 214c0 83 -55 139 -159 139c-121 0 -181 -68 -181 -161h-106c0 136 107 249 285 249c164 0 267 -85 267 -226c0 -102 -81 -188 -185 -288l-213 -198h437v-88z" />
    <glyph glyph-name="uni2083" unicode="&#x2083;" 
d="M492 40c107 -28 160 -95 160 -188c0 -145 -124 -227 -288 -227c-144 0 -293 72 -293 231h106c0 -84 79 -144 190 -144c115 0 179 55 179 143c0 101 -81 142 -200 142h-78v81h78c121 0 184 59 184 135s-51 135 -168 135c-97 0 -171 -50 -171 -131h-106
c0 133 122 219 276 219c165 0 275 -79 275 -221c0 -74 -52 -142 -144 -175z" />
    <glyph glyph-name="uni2084" unicode="&#x2084;" 
d="M694 -88v-89h-127v-187h-105v187h-399l-3 67l397 535h110v-513h127zM174 -88h288v383l-30 -50z" />
    <glyph glyph-name="uni2085" unicode="&#x2085;" 
d="M129 34l48 391h463v-90h-376l-29 -228c28 15 88 38 160 38c163 0 270 -96 270 -254c0 -147 -86 -266 -280 -266c-136 0 -266 76 -277 223h105c9 -90 80 -136 172 -136c122 0 175 70 175 180c0 102 -67 171 -187 171c-85 0 -123 -23 -161 -51z" />
    <glyph glyph-name="uni2086" unicode="&#x2086;" 
d="M409 157c167 0 254 -116 254 -262c0 -152 -107 -270 -273 -270c-178 0 -293 119 -293 299v68c0 285 160 442 429 442h17v-90h-11c-191 0 -315 -92 -330 -279c43 52 116 92 207 92zM388 -288c105 0 171 82 171 182s-59 176 -176 176c-83 0 -157 -46 -182 -106v-48
c0 -129 79 -204 187 -204z" />
    <glyph glyph-name="uni2087" unicode="&#x2087;" 
d="M659 365l-366 -729h-111l365 700h-485v89h597v-60z" />
    <glyph glyph-name="uni2088" unicode="&#x2088;" 
d="M504 41c94 -33 155 -102 155 -193c0 -148 -126 -223 -289 -223c-164 0 -290 75 -290 223c0 91 61 161 155 194c-81 32 -133 96 -133 177c0 140 114 217 267 217s268 -77 268 -217c0 -81 -52 -145 -133 -178zM369 348c-95 0 -162 -50 -162 -133c0 -80 67 -131 163 -131
c95 0 162 51 162 131c0 79 -68 133 -163 133zM370 -288c106 0 184 52 184 141c0 88 -80 142 -185 142c-107 0 -184 -54 -184 -142c0 -89 77 -141 185 -141z" />
    <glyph glyph-name="uni2089" unicode="&#x2089;" 
d="M356 436c181 0 285 -118 285 -318v-63c0 -264 -128 -427 -419 -427h-16v87h16c209 0 303 97 312 264c-43 -52 -114 -88 -199 -88c-165 0 -259 117 -259 265c0 153 109 280 280 280zM355 -24c95 0 156 54 180 109v50c0 142 -71 212 -178 212c-109 0 -175 -90 -175 -190
c0 -97 61 -181 173 -181z" />
    <glyph glyph-name="uni2070" unicode="&#x2070;" 
d="M651 991c0 -222 -106 -337 -281 -337c-173 0 -283 115 -283 337v137c0 222 108 337 282 337c175 0 282 -115 282 -337v-137zM546 1137c0 154 -60 240 -177 240c-116 0 -177 -86 -177 -240v-155c0 -153 62 -241 178 -241c117 0 176 88 176 241v155z" />
    <glyph glyph-name="uni00B9" unicode="&#xb9;" 
d="M464 665h-105v663l-232 -69v90l324 106h13v-790z" />
    <glyph glyph-name="uni00B2" unicode="&#xb2;" 
d="M667 665h-571v76l289 283c100 95 137 158 137 214c0 83 -55 139 -159 139c-121 0 -181 -68 -181 -161h-106c0 136 107 249 285 249c164 0 267 -85 267 -226c0 -102 -81 -188 -185 -288l-213 -198h437v-88z" />
    <glyph glyph-name="uni00B3" unicode="&#xb3;" 
d="M492 1069c107 -28 160 -95 160 -188c0 -145 -124 -227 -288 -227c-144 0 -293 72 -293 231h106c0 -84 79 -144 190 -144c115 0 179 55 179 143c0 101 -81 142 -200 142h-78v81h78c121 0 184 59 184 135s-51 135 -168 135c-97 0 -171 -50 -171 -131h-106
c0 133 122 219 276 219c165 0 275 -79 275 -221c0 -74 -52 -142 -144 -175z" />
    <glyph glyph-name="uni2074" unicode="&#x2074;" 
d="M694 941v-89h-127v-187h-105v187h-399l-3 67l397 535h110v-513h127zM174 941h288v383l-30 -50z" />
    <glyph glyph-name="uni2075" unicode="&#x2075;" 
d="M129 1063l48 391h463v-90h-376l-29 -228c28 15 88 38 160 38c163 0 270 -96 270 -254c0 -147 -86 -266 -280 -266c-136 0 -266 76 -277 223h105c9 -90 80 -136 172 -136c122 0 175 70 175 180c0 102 -67 171 -187 171c-85 0 -123 -23 -161 -51z" />
    <glyph glyph-name="uni2076" unicode="&#x2076;" 
d="M409 1186c167 0 254 -116 254 -262c0 -152 -107 -270 -273 -270c-178 0 -293 119 -293 299v68c0 285 160 442 429 442h17v-90h-11c-191 0 -315 -92 -330 -279c43 52 116 92 207 92zM388 741c105 0 171 82 171 182s-59 176 -176 176c-83 0 -157 -46 -182 -106v-48
c0 -129 79 -204 187 -204z" />
    <glyph glyph-name="uni2077" unicode="&#x2077;" 
d="M659 1394l-366 -729h-111l365 700h-485v89h597v-60z" />
    <glyph glyph-name="uni2078" unicode="&#x2078;" 
d="M504 1070c94 -33 155 -102 155 -193c0 -148 -126 -223 -289 -223c-164 0 -290 75 -290 223c0 91 61 161 155 194c-81 32 -133 96 -133 177c0 140 114 217 267 217s268 -77 268 -217c0 -81 -52 -145 -133 -178zM369 1377c-95 0 -162 -50 -162 -133c0 -80 67 -131 163 -131
c95 0 162 51 162 131c0 79 -68 133 -163 133zM370 741c106 0 184 52 184 141c0 88 -80 142 -185 142c-107 0 -184 -54 -184 -142c0 -89 77 -141 185 -141z" />
    <glyph glyph-name="uni2079" unicode="&#x2079;" 
d="M356 1465c181 0 285 -118 285 -318v-63c0 -264 -128 -427 -419 -427h-16v87h16c209 0 303 97 312 264c-43 -52 -114 -88 -199 -88c-165 0 -259 117 -259 265c0 153 109 280 280 280zM355 1005c95 0 156 54 180 109v50c0 142 -71 212 -178 212c-109 0 -175 -90 -175 -190
c0 -97 61 -181 173 -181z" />
    <glyph glyph-name="fraction" unicode="&#x2044;" horiz-adv-x="918" 
d="M137 121l-75 48l711 1138l75 -48z" />
    <glyph glyph-name="zero.smcp" horiz-adv-x="1025" 
d="M918 489c0 -331 -150 -505 -405 -505c-252 0 -407 174 -407 505v189c0 330 152 503 405 503c255 0 407 -173 407 -503v-189zM798 694c0 242 -96 385 -287 385c-189 0 -286 -143 -286 -385v-220c0 -241 99 -389 288 -389c191 0 285 148 285 389v220z" />
    <glyph glyph-name="one.smcp" horiz-adv-x="1025" 
d="M633 0h-120v1020l-353 -111v107l454 152h19v-1168z" />
    <glyph glyph-name="two.smcp" horiz-adv-x="1025" 
d="M947 0h-826v90l428 427c157 152 214 246 214 337c0 134 -90 225 -258 225c-197 0 -294 -107 -294 -257h-120c0 197 153 359 414 359c229 0 379 -124 379 -324c0 -145 -124 -279 -261 -421l-354 -334h678v-102z" />
    <glyph glyph-name="three.smcp" horiz-adv-x="1025" 
d="M677 597c165 -42 240 -147 240 -280c0 -212 -175 -333 -409 -333c-212 0 -423 108 -423 334h120c0 -137 126 -233 304 -233c181 0 288 85 288 231c0 160 -130 227 -323 227h-111v101h111c197 0 298 95 298 214c0 128 -84 221 -268 221c-159 0 -279 -84 -279 -219h-120
c0 191 172 321 399 321c234 0 388 -117 388 -324c0 -106 -74 -211 -215 -260z" />
    <glyph glyph-name="four.smcp" horiz-adv-x="1025" 
d="M991 389v-102h-200v-287h-120v287h-609l-2 73l601 805h130v-776h200zM200 389h471v629l-50 -84z" />
    <glyph glyph-name="five.smcp" horiz-adv-x="1025" 
d="M177 593l70 572h666v-108h-566l-47 -369c44 26 134 61 246 61c235 0 398 -143 398 -377c0 -219 -122 -388 -403 -388c-192 0 -377 108 -396 325h117c18 -147 133 -224 279 -224c195 0 283 109 283 289c0 162 -108 273 -299 273c-132 0 -190 -33 -254 -80z" />
    <glyph glyph-name="six.smcp" horiz-adv-x="1024" 
d="M557 768c251 0 377 -175 377 -385c0 -225 -150 -399 -392 -399c-258 0 -419 187 -419 434v105c0 402 210 652 621 652h18v-104h-16c-303 0 -484 -163 -502 -446c64 81 175 143 313 143zM541 86c170 0 275 132 275 294c0 158 -93 286 -282 286c-131 0 -252 -75 -291 -177
v-71c0 -209 130 -332 298 -332z" />
    <glyph glyph-name="seven.smcp" horiz-adv-x="1025" 
d="M934 1096l-555 -1096h-126l553 1062h-738v103h866v-69z" />
    <glyph glyph-name="eight.smcp" horiz-adv-x="1025" 
d="M694 598c143 -47 238 -152 238 -287c0 -215 -185 -327 -419 -327c-238 0 -420 112 -420 327c0 136 94 240 237 288c-124 47 -204 143 -204 264c0 205 165 318 385 318s388 -113 388 -318c0 -122 -81 -218 -205 -265zM246 861c0 -130 111 -213 267 -213
c153 0 266 83 266 213c0 128 -115 218 -268 218c-155 0 -265 -83 -265 -218zM513 85c172 0 299 83 299 229c0 140 -129 232 -301 232c-174 0 -299 -92 -299 -232c0 -146 125 -229 301 -229z" />
    <glyph glyph-name="nine.smcp" horiz-adv-x="1025" 
d="M489 1181c272 0 411 -186 411 -467v-95c0 -361 -160 -629 -605 -629h-24l1 102h23c339 0 476 178 485 435c-63 -86 -173 -148 -313 -148c-245 0 -382 184 -382 392c0 224 155 410 404 410zM485 479c155 0 258 95 295 192v59c0 230 -118 348 -289 348
c-176 0 -283 -144 -283 -305c0 -152 97 -294 277 -294z" />
    <glyph glyph-name="asterisk" unicode="*" horiz-adv-x="869" 
d="M362 1001l-333 107l33 101l331 -122l-4 369h105l-9 -372l325 127l33 -102l-334 -114l224 -295l-86 -63l-214 306l-204 -304l-85 61z" />
    <glyph glyph-name="backslash" unicode="\" horiz-adv-x="807" 
d="M49 1456h117l608 -1581h-117z" />
    <glyph glyph-name="periodcentered" unicode="&#xb7;" horiz-adv-x="504" 
d="M248 801c53 0 86 -37 86 -84c0 -46 -33 -81 -86 -81s-85 35 -85 81c0 47 32 84 85 84z" />
    <glyph glyph-name="bullet" unicode="&#x2022;" horiz-adv-x="663" 
d="M147 752c0 104 71 179 184 179c116 0 187 -76 187 -179v-35c0 -102 -71 -176 -186 -176c-114 0 -185 74 -185 176v35z" />
    <glyph glyph-name="colon" unicode=":" horiz-adv-x="430" 
d="M213 1079c53 0 86 -36 86 -83c0 -46 -33 -82 -86 -82s-84 36 -84 82c0 47 31 83 84 83zM211 156c53 0 86 -36 86 -83c0 -46 -33 -82 -86 -82s-84 36 -84 82c0 47 31 83 84 83z" />
    <glyph glyph-name="comma" unicode="," horiz-adv-x="393" 
d="M272 49c0 -123 -53 -243 -140 -322l-71 52c61 83 93 161 93 267v143h118v-140z" />
    <glyph glyph-name="ellipsis" unicode="&#x2026;" horiz-adv-x="1313" 
d="M251 156c53 0 86 -36 86 -83c0 -46 -33 -82 -86 -82s-84 36 -84 82c0 47 31 83 84 83zM661 156c53 0 86 -36 86 -83c0 -46 -33 -82 -86 -82s-84 36 -84 82c0 47 31 83 84 83zM1053 156c53 0 86 -36 86 -83c0 -46 -33 -82 -86 -82s-84 36 -84 82c0 47 31 83 84 83z" />
    <glyph glyph-name="exclam" unicode="!" horiz-adv-x="462" 
d="M284 406h-110l-7 1050h124zM236 151c51 0 83 -35 83 -80s-32 -80 -83 -80s-82 35 -82 80s31 80 82 80z" />
    <glyph glyph-name="exclamdown" unicode="&#xa1;" horiz-adv-x="453" 
d="M224 942c-52 0 -83 36 -83 81c0 44 31 79 83 79c51 0 82 -35 82 -79c0 -45 -31 -81 -82 -81zM175 690h111l6 -1050h-124z" />
    <glyph glyph-name="numbersign" unicode="#" horiz-adv-x="1191" 
d="M1201 945h-247l-83 -441h255v-94h-273l-77 -410h-100l77 410h-313l-77 -410h-100l77 410h-255v94h273l83 441h-280v95h298l78 416h100l-78 -416h313l79 416h100l-79 -416h229v-95zM771 504l83 441h-313l-83 -441h313z" />
    <glyph glyph-name="period" unicode="." horiz-adv-x="489" 
d="M230 156c53 0 86 -36 86 -83c0 -46 -33 -82 -86 -82s-84 36 -84 82c0 47 31 83 84 83z" />
    <glyph glyph-name="question" unicode="?" horiz-adv-x="930" 
d="M376 405c2 170 43 244 165 362c107 106 183 175 183 335c0 159 -86 268 -252 268c-154 0 -266 -95 -268 -254h-120c3 228 175 360 388 360c239 0 372 -152 372 -373c0 -178 -97 -295 -236 -422c-85 -73 -112 -169 -112 -276h-120zM442 151c51 0 83 -35 83 -80
s-32 -80 -83 -80s-82 35 -82 80s31 80 82 80z" />
    <glyph glyph-name="questiondown" unicode="&#xbf;" horiz-adv-x="941" 
d="M485 941c-51 0 -83 36 -83 81s32 79 83 79c52 0 82 -34 82 -79s-30 -81 -82 -81zM551 688c-2 -170 -26 -216 -147 -336c-103 -105 -196 -186 -196 -361c0 -170 93 -268 262 -268c154 0 261 97 263 256h119c-3 -234 -169 -362 -382 -362c-242 0 -382 144 -382 372
c0 193 114 323 249 449c86 73 95 143 95 250h119z" />
    <glyph glyph-name="quotedbl" unicode="&#x22;" horiz-adv-x="589" 
d="M244 1397l-20 -314h-81l3 307v146h98v-139zM479 1397l-19 -314h-81l3 311v142h97v-139z" />
    <glyph glyph-name="quotesingle" unicode="'" horiz-adv-x="349" 
d="M227 1396l-18 -305h-89l5 296v149h102v-140z" />
    <glyph glyph-name="semicolon" unicode=";" horiz-adv-x="399" 
d="M202 1079c53 0 86 -36 86 -83c0 -46 -33 -82 -86 -82s-84 36 -84 82c0 47 31 83 84 83zM272 49c0 -123 -53 -243 -140 -322l-71 52c61 83 93 161 93 267v143h118v-140z" />
    <glyph glyph-name="slash" unicode="/" horiz-adv-x="814" 
d="M139 -125h-109l608 1581h109z" />
    <glyph glyph-name="underscore" unicode="_" horiz-adv-x="885" 
d="M883 -102h-881v102h881v-102z" />
    <glyph glyph-name="braceleft" unicode="{" horiz-adv-x="677" 
d="M419 59c0 -183 70 -325 248 -384l-30 -80c-258 77 -337 254 -337 464v226c0 157 -68 258 -231 258v105c163 0 231 100 231 257v227c0 210 79 388 337 465l27 -79c-178 -56 -245 -204 -245 -386v-227c0 -140 -54 -257 -182 -310c128 -52 182 -170 182 -310v-226z" />
    <glyph glyph-name="braceright" unicode="}" horiz-adv-x="677" 
d="M376 905c0 -157 68 -257 231 -257v-105c-163 0 -231 -101 -231 -258v-226c0 -210 -78 -387 -337 -464l-29 80c176 59 247 201 247 384v226c0 144 58 261 193 310c-135 49 -193 166 -193 310v227c0 182 -67 330 -244 386l26 79c259 -77 337 -255 337 -465v-227z" />
    <glyph glyph-name="bracketleft" unicode="[" horiz-adv-x="491" 
d="M494 1562h-210v-1772h210v-102h-330v1976h330v-102z" />
    <glyph glyph-name="bracketright" unicode="]" horiz-adv-x="491" 
d="M1 1664h330v-1976h-330v102h210v1772h-210v102z" />
    <glyph glyph-name="parenleft" unicode="(" horiz-adv-x="654" 
d="M141 589c0 520 245 920 452 1044l29 -82c-178 -124 -361 -491 -361 -959v-20c0 -469 183 -836 361 -965l-29 -77c-207 123 -452 510 -452 1044v15z" />
    <glyph glyph-name="parenright" unicode=")" horiz-adv-x="668" 
d="M514 574c0 -534 -245 -921 -452 -1044l-29 77c178 125 361 496 361 965v20c0 468 -190 840 -361 964l29 77c207 -124 452 -524 452 -1044v-15z" />
    <glyph glyph-name="emdash" unicode="&#x2014;" horiz-adv-x="1580" 
d="M1463 687h-1336v102h1336v-102z" />
    <glyph glyph-name="endash" unicode="&#x2013;" horiz-adv-x="1334" 
d="M1161 687h-1002v102h1002v-102z" />
    <glyph glyph-name="hyphen" unicode="-" horiz-adv-x="586" 
d="M528 592h-479v102h479v-102z" />
    <glyph glyph-name="uni00AD" unicode="&#xad;" horiz-adv-x="600" 
d="M528 592h-479v102h479v-102z" />
    <glyph glyph-name="guillemotleft" unicode="&#xab;" horiz-adv-x="933" 
d="M524 925l-276 -388l276 -389h-106l-295 379v19l295 379h106zM833 925l-276 -388l276 -389h-106l-295 379v19l295 379h106z" />
    <glyph glyph-name="guillemotright" unicode="&#xbb;" horiz-adv-x="929" 
d="M516 541l-294 -379h-106l276 389l-276 394h106l294 -385v-19zM541 945l294 -385v-19l-294 -379h-106l276 389l-276 394h106z" />
    <glyph glyph-name="guilsinglleft" unicode="&#x2039;" horiz-adv-x="609" 
d="M509 945l-276 -388l276 -389h-106l-295 379v19l295 379h106z" />
    <glyph glyph-name="guilsinglright" unicode="&#x203a;" horiz-adv-x="609" 
d="M204 945l294 -385v-19l-294 -379h-106l276 389l-276 394h106z" />
    <glyph glyph-name="quotedblbase" unicode="&#x201e;" horiz-adv-x="594" 
d="M253 90c0 -126 -53 -250 -140 -331l-71 52c61 86 91 167 91 276v150h120v-147zM487 90c0 -126 -54 -250 -141 -331l-71 52c62 86 92 167 92 276v150h120v-147z" />
    <glyph glyph-name="quotedblleft" unicode="&#x201c;" horiz-adv-x="612" 
d="M100 1234c0 122 53 242 140 321l71 -52c-61 -83 -92 -161 -92 -267v-114h-119v112zM351 1234c0 122 53 242 140 321l71 -52c-61 -83 -92 -161 -92 -267v-114h-119v112z" />
    <glyph glyph-name="quotedblright" unicode="&#x201d;" horiz-adv-x="617" 
d="M280 1421c0 -122 -53 -243 -140 -321l-71 52c61 82 92 161 92 266v118h119v-115zM524 1421c0 -122 -53 -243 -140 -321l-71 52c61 82 92 161 92 266v118h119v-115z" />
    <glyph glyph-name="quoteleft" unicode="&#x2018;" horiz-adv-x="365" 
d="M99 1234c0 122 53 242 140 321l71 -52c-61 -83 -92 -161 -92 -267v-114h-119v112z" />
    <glyph glyph-name="quoteright" unicode="&#x2019;" horiz-adv-x="365" 
d="M274 1421c0 -122 -53 -243 -140 -321l-71 52c61 82 92 161 92 266v118h119v-115z" />
    <glyph glyph-name="quotesinglbase" unicode="&#x201a;" horiz-adv-x="354" 
d="M253 90c0 -122 -53 -243 -140 -322l-71 52c61 83 91 162 91 267v119h120v-116z" />
    <glyph glyph-name="uni05F3" unicode="&#x5f3;" horiz-adv-x="282" 
d="M87 918l-75 42c61 80 89 160 89 263v189h114l-1 -181c0 -129 -52 -239 -127 -313z" />
    <glyph glyph-name="uni05F4" unicode="&#x5f4;" horiz-adv-x="541" 
d="M93 918l-74 42c60 80 89 160 89 263v189h113v-181c0 -129 -53 -239 -128 -313zM333 918l-74 42c61 80 89 160 89 263v189h113v-181c0 -129 -53 -239 -128 -313z" />
    <glyph glyph-name="uni05BE" unicode="&#x5be;" horiz-adv-x="479" 
d="M419 1066h-359v101h359v-101z" />
    <glyph glyph-name="space" unicode=" " horiz-adv-x="499" 
 />
    <glyph glyph-name="uni200F" unicode="&#x200f;" horiz-adv-x="0" 
d="M-339 1275v-1475h-85v1390h-316l194 -179h-121l-232 220l228 233h120l-192 -189h404z" />
    <glyph glyph-name="uni200E" unicode="&#x200e;" horiz-adv-x="0" 
d="M-433 1464l228 -233l-232 -220h-121l194 179h-316v-1390h-85v1475h404l-192 189h120z" />
    <glyph glyph-name="uni200D" unicode="&#x200d;" horiz-adv-x="0" 
d="M-317 1427l-194 -197l194 -196l-62 -63l-153 155v-1326h-85v1323l-150 -152l-62 63l194 196l-194 197l62 62l194 -196l195 196z" />
    <glyph glyph-name="uni200C" unicode="&#x200c;" horiz-adv-x="0" 
d="M-616 1275h85v-1475h-85v1475z" />
    <glyph glyph-name=".null" horiz-adv-x="0" 
 />
    <glyph glyph-name="Euro" unicode="&#x20ac;" horiz-adv-x="1136" 
d="M813 83c77 0 152 12 219 34l10 -107c-71 -20 -150 -31 -230 -31c-316 0 -537 192 -537 568v16h-191v89h191v165h-191v89h191v2c0 376 219 568 536 568c81 0 153 -12 231 -31l-10 -108c-66 21 -143 35 -220 35c-253 0 -413 -150 -413 -462v-4h419v-89h-419v-165h419v-89
h-419v-16c0 -308 162 -464 414 -464z" />
    <glyph glyph-name="cent" unicode="&#xa2;" horiz-adv-x="1115" 
d="M582 82c150 0 289 88 301 253h114c-9 -189 -165 -330 -360 -352v-228h-120v229c-261 31 -397 254 -397 536v42c0 282 137 506 397 536v220h120v-219c203 -23 351 -166 360 -381h-114c-10 175 -139 282 -303 282c-246 0 -341 -209 -341 -438v-42c0 -231 94 -438 343 -438z
" />
    <glyph glyph-name="currency" unicode="&#xa4;" horiz-adv-x="1481" 
d="M1335 608c0 -146 -45 -278 -121 -383l162 -165l-87 -87l-157 160c-105 -96 -242 -153 -392 -153c-149 0 -286 57 -390 152l-155 -158l-85 86l159 162c-78 105 -124 239 -124 386c0 154 50 291 133 398l-168 172l85 86l167 -170c103 88 234 140 378 140
c145 0 277 -52 380 -141l169 172l87 -87l-171 -175c81 -106 130 -243 130 -395zM740 91c264 0 481 231 481 517c0 285 -217 515 -481 515c-265 0 -482 -230 -482 -515c0 -286 217 -517 482 -517z" />
    <glyph glyph-name="dollar" unicode="$" horiz-adv-x="1136" 
d="M1021 361c0 -223 -150 -361 -383 -380v-189h-102v188c-213 14 -420 131 -420 439h119c0 -258 185 -334 346 -334c202 0 321 122 321 274c0 147 -81 230 -327 315c-253 82 -408 183 -408 421c0 218 144 362 372 380v202h102v-202c232 -21 370 -177 370 -447h-119
c0 197 -107 343 -304 343c-206 0 -301 -125 -301 -273c0 -147 63 -228 329 -317c251 -84 405 -181 405 -420z" />
    <glyph glyph-name="uni20AA" unicode="&#x20aa;" horiz-adv-x="1617" 
d="M161 0v1168h883v-648c0 -102 -10 -170 -39 -247l-101 -15l-6 5c22 73 31 147 31 257v545h-653v-1065h-115zM549 0v859h115v-755h307c204 -1 345 134 345 344v720h115v-718c1 -274 -180 -450 -467 -450h-415z" />
    <glyph glyph-name="sterling" unicode="&#xa3;" horiz-adv-x="1170" 
d="M349 104h745v-104h-997v104h99c70 20 96 159 94 264l-9 277h-188v105h185l-9 289c0 276 166 437 405 437c251 0 393 -158 393 -388h-122c0 202 -130 284 -279 284c-162 0 -274 -118 -274 -333l9 -289h345v-105h-341l9 -277c2 -110 -20 -203 -65 -264z" />
    <glyph glyph-name="yen" unicode="&#xa5;" horiz-adv-x="1057" 
d="M1030 1456l-399 -750h314v-89h-358v-204h358v-89h-358v-324h-124v324h-354v89h354v204h-354v89h314l-399 750h139l365 -725l365 725h137z" />
    <glyph glyph-name="plus" unicode="+" horiz-adv-x="1156" 
d="M1074 741v-113h-444v-482h-120v482h-434v113h434v465h120v-465h444z" />
    <glyph glyph-name="minus" unicode="&#x2212;" horiz-adv-x="1169" 
d="M1001 687h-835v102h835v-102z" />
    <glyph glyph-name="multiply" unicode="&#xd7;" horiz-adv-x="1072" 
d="M967 180l-79 -80l-358 364l-357 -364l-79 80l357 365l-343 349l79 81l343 -350l343 350l79 -81l-343 -349z" />
    <glyph glyph-name="divide" unicode="&#xf7;" horiz-adv-x="1164" 
d="M580 1172c53 0 86 -37 86 -84c0 -45 -33 -81 -86 -81s-85 36 -85 81c0 47 32 84 85 84zM1070 644h-998v117h998v-117zM580 375c53 0 86 -37 86 -83s-33 -82 -86 -82s-85 36 -85 82s32 83 85 83z" />
    <glyph glyph-name="equal" unicode="=" horiz-adv-x="1133" 
d="M984 829h-834v106h834v-106zM984 418h-834v106h834v-106z" />
    <glyph glyph-name="greater" unicode="&#x3e;" horiz-adv-x="1062" 
d="M124 1086l845 -378v-97l-845 -379v124l711 304l-711 302v124z" />
    <glyph glyph-name="less" unicode="&#x3c;" horiz-adv-x="1047" 
d="M905 1083v-125l-696 -302l696 -300v-126l-828 379v96z" />
    <glyph glyph-name="plusminus" unicode="&#xb1;" horiz-adv-x="1086" 
d="M610 829h391v-101h-391v-439h-111v439h-414v101h414v438h111v-438zM129 0v102h835v-102h-835z" />
    <glyph glyph-name="asciitilde" unicode="~" horiz-adv-x="1403" 
d="M1255 765c0 -184 -111 -342 -297 -342c-118 0 -192 51 -298 145c-84 76 -138 113 -219 113c-118 0 -187 -83 -187 -231l-108 -1c0 189 107 339 295 339c119 0 197 -54 299 -145c87 -80 142 -113 218 -113c121 0 192 93 192 235h105z" />
    <glyph glyph-name="logicalnot" unicode="&#xac;" horiz-adv-x="1118" 
d="M125 776h812v-390h-120v284h-692v106z" />
    <glyph glyph-name="percent" unicode="%" horiz-adv-x="1514" 
d="M110 1176c0 165 111 301 285 301s285 -136 285 -301v-77c0 -163 -110 -299 -283 -299c-176 0 -287 136 -287 299v77zM206 1099c0 -107 61 -212 191 -212c126 0 186 104 186 212v77c0 109 -61 214 -188 214c-126 0 -189 -105 -189 -214v-77zM435 121l-75 48l711 1138
l75 -48zM842 357c0 164 111 300 285 300c175 0 285 -136 285 -300v-78c0 -164 -110 -300 -283 -300c-176 0 -287 136 -287 300v78zM939 279c0 -108 60 -213 190 -213c126 0 186 104 186 213v78c0 114 -61 213 -188 213c-125 0 -188 -99 -188 -213v-78z" />
    <glyph glyph-name="at" unicode="@" horiz-adv-x="1871" 
d="M985 1421c532 0 789 -352 766 -908c-9 -251 -119 -533 -389 -533c-129 0 -213 73 -239 196c-72 -129 -178 -196 -299 -196c-189 0 -284 178 -260 447c31 344 219 562 435 562c135 0 199 -51 269 -108l-50 -570c-18 -214 91 -245 156 -245c177 0 274 194 284 447
c25 504 -181 814 -677 814c-430 0 -734 -335 -759 -849c-24 -497 225 -842 681 -842c118 0 248 31 331 79l30 -79c-89 -58 -244 -89 -365 -89c-507 0 -800 357 -777 931c25 560 360 943 863 943zM846 78c96 0 205 55 273 254l45 516c-39 29 -92 50 -159 50
c-160 0 -303 -152 -334 -471c-22 -206 38 -349 175 -349z" />
    <glyph glyph-name="ampersand" unicode="&#x26;" horiz-adv-x="1261" 
d="M1232 0h-145l-126 146c-105 -103 -248 -166 -400 -166c-280 0 -453 158 -453 391c0 175 124 293 282 414l14 11c-102 125 -165 229 -165 349c0 204 131 332 334 332c196 0 311 -131 311 -286c0 -131 -99 -232 -194 -305l-132 -101l401 -467c56 91 91 204 91 334h111
c0 -169 -45 -308 -129 -419zM359 1149c0 -86 48 -181 134 -287l132 99c84 62 146 131 146 230c0 95 -70 184 -198 184c-140 0 -214 -104 -214 -226zM561 82c121 0 239 53 329 147l-406 472c-5 5 -9 11 -14 16l-47 -36c-171 -140 -195 -243 -195 -310
c0 -153 107 -289 333 -289z" />
    <glyph glyph-name="paragraph" unicode="&#xb6;" horiz-adv-x="974" 
d="M681 0v520h-106c-318 0 -492 198 -492 468c0 268 174 468 492 468h227v-1456h-121z" />
    <glyph glyph-name="section" unicode="&#xa7;" horiz-adv-x="1240" 
d="M887 159c122 -63 188 -150 188 -298c0 -225 -185 -356 -469 -356c-248 0 -503 107 -503 431l120 2c0 -252 204 -331 383 -331c223 0 349 107 349 252c0 138 -78 206 -370 288c-292 74 -476 167 -476 404c0 133 83 230 223 275c-115 63 -178 151 -178 294
c0 215 184 356 470 356c295 0 473 -153 473 -431h-119c0 182 -125 330 -354 330c-242 0 -350 -114 -350 -252c0 -150 72 -209 372 -294c298 -79 474 -161 474 -398c0 -132 -87 -228 -233 -272zM229 553c0 -155 78 -211 401 -302c44 -12 85 -24 124 -37
c157 18 246 105 246 214c0 145 -95 213 -404 302c-50 13 -97 27 -140 42c-156 -19 -227 -107 -227 -219z" />
    <glyph glyph-name="copyright" unicode="&#xa9;" horiz-adv-x="1638" 
d="M817 1476c392 0 710 -324 710 -747s-318 -750 -710 -750c-391 0 -710 327 -710 750s319 747 710 747zM817 66c343 0 624 291 624 663s-281 661 -624 661s-624 -289 -624 -661s281 -663 624 -663zM1122 607c0 -210 -123 -314 -315 -314c-202 0 -333 157 -333 387v97
c0 229 131 387 333 387c192 0 316 -104 316 -313h-99c0 153 -77 223 -217 223c-150 0 -233 -128 -233 -296v-98c0 -170 83 -296 233 -296c140 0 216 66 216 223h99z" />
    <glyph glyph-name="registered" unicode="&#xae;" horiz-adv-x="1642" 
d="M813 1476c391 0 709 -324 709 -747s-318 -750 -709 -750c-392 0 -710 327 -710 750s318 747 710 747zM813 66c343 0 624 291 624 663s-281 661 -624 661c-344 0 -625 -289 -625 -661s281 -663 625 -663zM1103 510v-45c0 -50 5 -97 17 -127v-16h-102
c-14 34 -14 115 -14 144v43c0 111 -45 158 -166 158h-187v-345h-98v839h257c195 0 306 -83 306 -248c0 -91 -51 -156 -142 -197c97 -34 129 -113 129 -206zM831 758c101 1 187 53 187 153c0 112 -52 159 -208 159h-159v-312h180z" />
    <glyph glyph-name="degree" unicode="&#xb0;" horiz-adv-x="774" 
d="M389 1476c132 0 241 -113 241 -249c0 -138 -109 -247 -241 -247c-135 0 -246 109 -246 247c0 136 111 249 246 249zM389 1071c87 0 152 66 152 156c0 91 -65 159 -152 159s-156 -68 -156 -159c0 -90 69 -156 156 -156z" />
    <glyph glyph-name="bar" unicode="|" horiz-adv-x="453" 
d="M280 -270h-102v1726h102v-1726z" />
    <glyph glyph-name="brokenbar" unicode="&#xa6;" horiz-adv-x="445" 
d="M280 698h-120v758h120v-758zM160 -270v771h120v-771h-120z" />
    <glyph glyph-name="asciicircum" unicode="^" horiz-adv-x="853" 
d="M765 729h-116l-228 569l-228 -569h-115l299 727h89z" />
    <glyph glyph-name="ampersand.smcp" horiz-adv-x="1243" 
d="M1161 0h-142l-121 123c-100 -88 -237 -141 -399 -141c-234 0 -378 120 -378 293c0 134 73 213 190 298l84 61c-104 106 -174 184 -174 295c0 149 113 252 288 252c179 0 284 -112 284 -244c0 -99 -75 -189 -147 -241l-97 -71l345 -352c56 79 88 178 88 292h112
c0 -138 -47 -265 -127 -367zM339 923c0 -74 57 -141 141 -227l92 67c63 46 103 105 103 168c0 79 -60 147 -170 147c-108 0 -166 -74 -166 -155zM507 85c125 0 235 41 318 113l-360 366l-92 -67c-118 -87 -133 -151 -133 -210c0 -110 86 -202 267 -202z" />
    <glyph glyph-name="dollar.smcp" horiz-adv-x="1049" 
d="M979 291c0 -180 -159 -291 -383 -305v-223h-102v223c-210 15 -419 120 -419 353h119c0 -189 182 -255 352 -255c192 0 313 84 313 206c0 119 -78 186 -326 246c-257 63 -418 151 -418 340c0 172 155 290 379 304v215h102v-216c230 -21 375 -165 375 -348h-119
c0 143 -114 248 -314 248c-199 0 -304 -91 -304 -201c0 -106 81 -174 334 -236c254 -63 411 -158 411 -351z" />
    <glyph glyph-name="Euro.smcp" horiz-adv-x="959" 
d="M673 83c78 0 138 11 206 31l14 -102c-71 -20 -140 -31 -220 -31c-267 0 -425 161 -449 443h-170v87h167v133h-167v87h170c21 285 179 450 447 450c81 0 143 -12 222 -31l-11 -102c-67 21 -132 31 -211 31c-207 0 -310 -125 -327 -348h430v-87h-433v-133h433v-87h-430
c20 -216 125 -341 329 -341z" />
    <glyph glyph-name="sterling.smcp" horiz-adv-x="1031" 
d="M273 102h696v-102h-872v102h10c103 32 133 233 128 364l-2 69h-191v86h187l-4 123c-10 274 126 437 354 437c251 0 352 -156 352 -387h-119c0 209 -91 284 -233 284c-157 0 -242 -116 -235 -334l4 -123h415v-86h-411l2 -69c5 -139 -15 -276 -81 -364z" />
    <glyph glyph-name="yen.smcp" horiz-adv-x="931" 
d="M907 1165l-339 -654h257v-87h-302v-83h302v-86h-302v-255h-120v255h-302v86h302v83h-302v87h260l-339 654h129l315 -635l315 635h126z" />
    <glyph glyph-name="uniFB29" unicode="&#xfb29;" horiz-adv-x="1140" 
d="M504 1206h111v-477h451v-104h-998v104h436v477z" />
    <glyph glyph-name="gravecomb" unicode="&#x300;" horiz-adv-x="0" 
d="M-465 1257h-109l-227 279h145z" />
    <glyph glyph-name="acutecomb" unicode="&#x301;" horiz-adv-x="0" 
d="M-425 1536h145l-231 -279h-105z" />
    <glyph glyph-name="tildecomb" unicode="&#x303;" horiz-adv-x="0" 
d="M-181 1486c0 -129 -87 -213 -196 -213c-140 0 -163 110 -277 110c-62 0 -111 -45 -111 -119l-89 4c0 127 85 212 195 212c126 0 169 -110 278 -110c61 0 110 48 110 122z" />
    <glyph glyph-name="acute" unicode="&#xb4;" horiz-adv-x="577" 
d="M316 1536h145l-232 -279h-104z" />
    <glyph glyph-name="cedilla" unicode="&#xb8;" horiz-adv-x="499" 
d="M246 0l-11 -65c82 -11 165 -52 165 -171s-107 -199 -294 -199l-7 77c99 0 201 36 201 121c0 77 -57 98 -175 109l28 128h93z" />
    <glyph glyph-name="circumflex" unicode="&#x2c6;" horiz-adv-x="880" 
d="M715 1269v-10h-110l-169 183l-167 -183h-108v12l238 255h76z" />
    <glyph glyph-name="dieresis" unicode="&#xa8;" horiz-adv-x="881" 
d="M220 1477c51 0 83 -35 83 -80s-32 -80 -83 -80c-52 0 -82 35 -82 80s30 80 82 80zM657 1477c52 0 83 -36 83 -81s-31 -79 -83 -79c-51 0 -82 34 -82 79s31 81 82 81z" />
    <glyph glyph-name="grave" unicode="`" horiz-adv-x="585" 
d="M439 1257h-109l-227 279h145z" />
    <glyph glyph-name="macron" unicode="&#xaf;" horiz-adv-x="875" 
d="M757 1344h-620v97h620v-97z" />
    <glyph glyph-name="ring" unicode="&#x2da;" horiz-adv-x="636" 
d="M311 1586c108 0 193 -84 193 -191s-85 -187 -193 -187c-109 0 -193 80 -193 187s84 191 193 191zM311 1280c68 0 116 50 116 115c0 67 -48 119 -116 119s-117 -52 -117 -119c0 -64 49 -115 117 -115z" />
    <glyph glyph-name="tilde" unicode="&#x2dc;" horiz-adv-x="892" 
d="M780 1486c0 -129 -87 -213 -196 -213c-140 0 -163 110 -277 110c-62 0 -111 -45 -111 -119l-89 4c0 127 85 212 195 212c126 0 169 -110 278 -110c61 0 110 48 110 122z" />
    <glyph glyph-name="uni05B0" unicode="&#x5b0;" horiz-adv-x="0" 
d="M580 -303c-38 0 -67 27 -67 63c0 37 29 65 67 65c37 0 66 -28 66 -65c0 -36 -29 -63 -66 -63zM580 -513c-38 0 -67 27 -67 63c0 37 29 65 67 65c37 0 66 -28 66 -65c0 -36 -29 -63 -66 -63z" />
    <glyph glyph-name="uni05B1" unicode="&#x5b1;" horiz-adv-x="0" 
d="M376 -303c-38 0 -67 27 -67 63c0 37 29 65 67 65c37 0 67 -28 67 -65c0 -36 -30 -63 -67 -63zM580 -303c-38 0 -67 27 -67 63c0 37 29 65 67 65c37 0 66 -28 66 -65c0 -36 -29 -63 -66 -63zM784 -303c-37 0 -66 27 -66 63c0 37 29 65 66 65c38 0 67 -28 67 -65
c0 -36 -29 -63 -67 -63zM478 -481c-38 0 -67 27 -67 63c0 37 29 65 67 65s67 -28 67 -65c0 -36 -29 -63 -67 -63zM784 -513c-37 0 -66 27 -66 63c0 37 29 65 66 65c38 0 67 -28 67 -65c0 -36 -29 -63 -67 -63z" />
    <glyph glyph-name="uni05B2" unicode="&#x5b2;" horiz-adv-x="0" 
d="M770 -303c-37 0 -66 27 -66 63c0 37 29 65 66 65c38 0 67 -28 67 -65c0 -36 -29 -63 -67 -63zM324 -276v75h316v-75h-316zM770 -513c-37 0 -66 27 -66 63c0 37 29 65 66 65c38 0 67 -28 67 -65c0 -36 -29 -63 -67 -63z" />
    <glyph glyph-name="uni05B3" unicode="&#x5b3;" horiz-adv-x="0" 
d="M771 -303c-38 0 -67 27 -67 63c0 37 29 65 67 65s67 -28 67 -65c0 -36 -29 -63 -67 -63zM486 -490c-37 0 -66 32 -66 64c0 45 33 47 38 150h-135v75h320v-75h-130c6 -103 40 -105 40 -150c0 -37 -29 -64 -67 -64zM771 -513c-38 0 -67 27 -67 63c0 37 29 65 67 65
s67 -28 67 -65c0 -36 -29 -63 -67 -63z" />
    <glyph glyph-name="uni05B4" unicode="&#x5b4;" horiz-adv-x="0" 
d="M580 -303c-38 0 -67 32 -67 63c0 37 29 65 67 65c37 0 66 -28 66 -65c0 -36 -29 -63 -66 -63z" />
    <glyph glyph-name="uni05B5" unicode="&#x5b5;" horiz-adv-x="0" 
d="M478 -303c-38 0 -67 32 -67 63c0 37 29 65 67 65s67 -28 67 -65c0 -36 -29 -63 -67 -63zM681 -303c-37 0 -66 32 -66 63c0 37 29 65 66 65c38 0 67 -28 67 -65c0 -36 -29 -63 -67 -63z" />
    <glyph glyph-name="uni05B6" unicode="&#x5b6;" horiz-adv-x="0" 
d="M478 -303c-38 0 -67 32 -67 63c0 37 29 65 67 65s67 -28 67 -65c0 -36 -29 -63 -67 -63zM681 -303c-37 0 -66 32 -66 63c0 37 29 65 66 65c38 0 67 -28 67 -65c0 -36 -29 -63 -67 -63zM580 -481c-38 0 -67 27 -67 63c0 37 29 65 67 65c37 0 66 -28 66 -65
c0 -36 -29 -63 -66 -63z" />
    <glyph glyph-name="uni05B7" unicode="&#x5b7;" horiz-adv-x="0" 
d="M396 -276v75h367v-75h-367z" />
    <glyph glyph-name="uni05B8" unicode="&#x5b8;" horiz-adv-x="0" 
d="M583 -492c-38 0 -67 32 -67 64c0 45 34 46 39 152h-152v75h354v-75h-147c6 -106 39 -107 39 -152c0 -37 -29 -64 -66 -64z" />
    <glyph glyph-name="uni05B9" unicode="&#x5b9;" horiz-adv-x="0" 
d="M240 1320c-38 0 -67 32 -67 63c0 37 29 65 67 65c37 0 67 -28 67 -65c0 -36 -30 -63 -67 -63z" />
    <glyph glyph-name="uni05BA" unicode="&#x5ba;" horiz-adv-x="0" 
d="M240 1320c-38 0 -67 32 -67 63c0 37 29 65 67 65c37 0 67 -28 67 -65c0 -36 -30 -63 -67 -63z" />
    <glyph glyph-name="uni05BB" unicode="&#x5bb;" horiz-adv-x="0" 
d="M581 -303c-38 0 -67 32 -67 63c0 37 29 65 67 65c37 0 66 -28 66 -65c0 -36 -29 -63 -66 -63zM698 -466c-38 0 -66 33 -66 64c0 36 28 64 66 64s67 -28 67 -64s-29 -64 -67 -64zM816 -628c-38 0 -67 32 -67 63c0 37 29 65 67 65s67 -28 67 -65c0 -36 -29 -63 -67 -63z
" />
    <glyph glyph-name="uni05BC" unicode="&#x5bc;" horiz-adv-x="0" 
d="M308 532c-38 0 -67 33 -67 64c0 37 29 65 67 65c37 0 67 -28 67 -65c0 -36 -30 -64 -67 -64z" />
    <glyph glyph-name="uni05BF" unicode="&#x5bf;" horiz-adv-x="0" 
d="M250 1352v81h438v-81h-438z" />
    <glyph glyph-name="uni05C1" unicode="&#x5c1;" horiz-adv-x="0" 
d="M1280 1320c-37 0 -66 32 -66 63c0 37 29 65 66 65c38 0 68 -28 68 -65c0 -36 -30 -63 -68 -63z" />
    <glyph glyph-name="uni05C2" unicode="&#x5c2;" horiz-adv-x="0" 
d="M214 1320c-37 0 -66 32 -66 63c0 37 29 65 66 65c38 0 68 -28 68 -65c0 -36 -30 -63 -68 -63z" />
    <glyph glyph-name="longst" unicode="&#xfb05;" horiz-adv-x="1215" 
d="M1131 96l5 -100c-29 -10 -81 -16 -128 -16c-138 0 -236 67 -236 284v720h-198v98h198v330c-45 24 -138 43 -204 43c-130 0 -206 -88 -206 -238v-1217h-119v984h-180v98h180v135c0 219 117 340 310 340c109 0 240 -36 339 -84v-113h1v-278h223v-98h-223v-720
c0 -152 66 -179 140 -179c37 0 70 6 98 11z" />
    <glyph glyph-name="st" unicode="&#xfb06;" horiz-adv-x="1660" 
d="M1581 95l6 -98c-34 -12 -77 -18 -129 -18c-137 0 -235 86 -235 309v696h-194v98h194v74c0 154 -62 259 -223 259c-121 0 -193 -71 -193 -182c0 -183 112 -258 112 -454h-121c0 112 -99 221 -279 221c-187 0 -262 -98 -262 -188c0 -96 46 -156 289 -211
c262 -60 379 -147 379 -319c0 -178 -157 -302 -399 -302c-275 0 -424 155 -424 324h119c11 -170 168 -222 305 -222c182 0 279 93 279 194c0 89 -49 177 -290 228s-377 126 -377 304c0 161 146 294 381 294c84 0 156 -15 215 -43c-25 63 -42 123 -42 186
c0 164 132 273 308 273c275 0 343 -187 343 -361v-75h224v-98h-224v-696c0 -158 67 -203 141 -203c36 0 70 6 97 10z" />
    <glyph glyph-name="crossbar" horiz-adv-x="865" 
d="M737 687h-611v102h611v-102z" />
    </font>
</defs>
</svg>
