<?xml version="1.0" standalone="no"?>
<!DOCTYPE svg PUBLIC "-//W3C//DTD SVG 1.1//EN" "http://www.w3.org/Graphics/SVG/1.1/DTD/svg11.dtd" >
<svg xmlns="http://www.w3.org/2000/svg" xmlns:xlink="http://www.w3.org/1999/xlink" version="1.1">
<metadata>
Created by FontForge 20160405 at Mon Mar 25 08:57:53 2019
 By www-data
Copyright 2014 The Heebo Project Authors.
</metadata>
<defs>
<font id="Heebo-Medium" horiz-adv-x="759" >
  <font-face 
    font-family="Heebo Medium"
    font-weight="500"
    font-stretch="normal"
    units-per-em="2048"
    panose-1="0 0 6 0 0 0 0 0 0 0"
    ascent="1638"
    descent="-410"
    x-height="1082"
    cap-height="1456"
    bbox="-938 -748 1878 2146"
    underline-thickness="100"
    underline-position="-150"
    stemh="192"
    stemv="244"
    unicode-range="U+0020-FB4F"
  />
<missing-glyph horiz-adv-x="1351" 
d="M1107 2146v-2701h-856v2701h856zM899 1965h-445v-89h175v-100h-178v-89h448v89h-178v100h178v89zM721 1617h-270v-281h448v92h-178v189zM629 1525v-97h-89v97h89zM899 1263h-448v-89h178v-100h-178v-89h270v189h178v89zM899 1101h-89v-179h-359v-91h448v270zM899 771
h-270v-151h92v62h89v-127h-270v216h-89v-305h448v305zM899 304h-448v-305h448v305zM810 215v-127h-270v127h270zM899 -63h-448v-90h189l-189 -126v-90h448v90h-275l189 126h86v90z" />
    <glyph glyph-name=".notdef" horiz-adv-x="1351" 
d="M1107 2146v-2701h-856v2701h856zM899 1965h-445v-89h175v-100h-178v-89h448v89h-178v100h178v89zM721 1617h-270v-281h448v92h-178v189zM629 1525v-97h-89v97h89zM899 1263h-448v-89h178v-100h-178v-89h270v189h178v89zM899 1101h-89v-179h-359v-91h448v270zM899 771
h-270v-151h92v62h89v-127h-270v216h-89v-305h448v305zM899 304h-448v-305h448v305zM810 215v-127h-270v127h270zM899 -63h-448v-90h189l-189 -126v-90h448v90h-275l189 126h86v90z" />
    <glyph glyph-name="A" unicode="A" horiz-adv-x="1365" 
d="M1079 0l-116 334h-559l-116 -334h-271l549 1456h233l551 -1456h-271zM476 543h414l-207 597z" />
    <glyph glyph-name="Aacute" unicode="&#xc1;" horiz-adv-x="1365" 
d="M1041 1846l-277 -303h-200l195 303h282zM1079 0l-116 334h-559l-116 -334h-271l549 1456h233l551 -1456h-271zM476 543h414l-207 597z" />
    <glyph glyph-name="Acircumflex" unicode="&#xc2;" horiz-adv-x="1365" 
d="M686 1713l-150 -155h-196v13l273 276h146l277 -278v-11h-199zM1079 0l-116 334h-559l-116 -334h-271l549 1456h233l551 -1456h-271zM476 543h414l-207 597z" />
    <glyph glyph-name="Adieresis" unicode="&#xc4;" horiz-adv-x="1365" 
d="M457 1558c-79 0 -128 52 -128 118c0 67 49 120 128 120c78 0 128 -53 128 -120c0 -66 -50 -118 -128 -118zM918 1556c-79 0 -128 52 -128 119s49 120 128 120c78 0 128 -53 128 -120s-50 -119 -128 -119zM1079 0l-116 334h-559l-116 -334h-271l549 1456h233l551 -1456
h-271zM476 543h414l-207 597z" />
    <glyph glyph-name="Agrave" unicode="&#xc0;" horiz-adv-x="1365" 
d="M814 1543h-206l-271 303h281zM1079 0l-116 334h-559l-116 -334h-271l549 1456h233l551 -1456h-271zM476 543h414l-207 597z" />
    <glyph glyph-name="Aring" unicode="&#xc5;" horiz-adv-x="1365" 
d="M686 1527c-127 0 -221 89 -221 204c0 114 94 208 221 208s222 -94 222 -208c0 -115 -95 -204 -222 -204zM686 1844c-66 0 -111 -52 -111 -113c0 -58 45 -110 111 -110c67 0 112 51 112 110c0 61 -45 113 -112 113zM1079 0l-116 334h-559l-116 -334h-271l549 1456h233
l551 -1456h-271zM476 543h414l-207 597z" />
    <glyph glyph-name="Atilde" unicode="&#xc3;" horiz-adv-x="1365" 
d="M559 1656c-50 0 -90 -41 -90 -102l-151 8c0 146 95 261 223 261c108 0 168 -89 270 -89c51 0 91 41 91 103l152 -12c0 -149 -97 -258 -224 -258c-131 0 -164 89 -271 89zM1079 0l-116 334h-559l-116 -334h-271l549 1456h233l551 -1456h-271zM476 543h414l-207 597z" />
    <glyph glyph-name="AE" unicode="&#xc6;" horiz-adv-x="1925" 
d="M1221 202h657v-202h-898l-14 340h-496l-182 -340h-296l829 1456h995v-202h-640l17 -401h542v-201h-533zM588 559h369l-27 638z" />
    <glyph glyph-name="B" unicode="B" horiz-adv-x="1295" 
d="M945 758c167 -44 245 -182 245 -332c0 -279 -189 -426 -507 -426h-537v1456h500c320 0 510 -122 510 -394c0 -133 -73 -247 -211 -304zM646 1247h-241v-403h243c158 0 250 74 250 202c0 142 -80 201 -252 201zM683 208c164 0 249 89 249 218c0 142 -69 228 -238 228h-289
v-446h278z" />
    <glyph glyph-name="C" unicode="C" horiz-adv-x="1338" 
d="M1261 476c-25 -286 -215 -496 -572 -496c-361 0 -589 269 -589 690v115c0 421 233 691 599 691c351 0 534 -211 563 -503h-258c-21 184 -97 293 -305 293c-225 0 -338 -172 -338 -479v-117c0 -292 95 -480 328 -480c213 0 291 101 314 286h258z" />
    <glyph glyph-name="Ccedilla" unicode="&#xc7;" horiz-adv-x="1338" 
d="M689 190c213 0 291 101 314 286h258c-23 -262 -184 -460 -485 -492l-8 -41c74 -13 150 -58 150 -173c0 -135 -113 -226 -330 -226l-7 142c77 0 134 25 134 88c0 59 -45 76 -150 84l29 129c-305 43 -494 300 -494 683v115c0 421 233 691 599 691c351 0 534 -211 563 -503
h-258c-21 184 -97 293 -305 293c-225 0 -338 -172 -338 -479v-117c0 -292 95 -480 328 -480z" />
    <glyph glyph-name="D" unicode="D" horiz-adv-x="1337" 
d="M578 1456c390 0 657 -273 657 -693v-71c0 -420 -264 -692 -667 -692h-422v1456h432zM975 692v73c0 312 -140 482 -397 482h-173v-1039h163c271 0 407 181 407 484z" />
    <glyph glyph-name="Eth" unicode="&#xd0;" horiz-adv-x="1337" 
d="M578 1456c390 0 657 -273 657 -693v-71c0 -420 -264 -692 -667 -692h-422v650h-156v173h156v633h432zM975 692v73c0 312 -140 482 -397 482h-173v-424h258v-173h-258v-442h163c271 0 407 181 407 484z" />
    <glyph glyph-name="E" unicode="E" horiz-adv-x="1158" 
d="M405 208h696v-208h-955v1456h949v-209h-690v-395h595v-204h-595v-440z" />
    <glyph glyph-name="Eacute" unicode="&#xc9;" horiz-adv-x="1158" 
d="M983 1853l-277 -303h-200l195 303h282zM405 208h696v-208h-955v1456h949v-209h-690v-395h595v-204h-595v-440z" />
    <glyph glyph-name="Ecircumflex" unicode="&#xca;" horiz-adv-x="1158" 
d="M628 1720l-150 -155h-196v13l273 276h146l277 -278v-11h-199zM405 208h696v-208h-955v1456h949v-209h-690v-395h595v-204h-595v-440z" />
    <glyph glyph-name="Edieresis" unicode="&#xcb;" horiz-adv-x="1158" 
d="M399 1565c-79 0 -128 52 -128 118c0 67 49 120 128 120c78 0 128 -53 128 -120c0 -66 -50 -118 -128 -118zM860 1563c-79 0 -128 52 -128 119s49 120 128 120c78 0 128 -53 128 -120s-50 -119 -128 -119zM405 208h696v-208h-955v1456h949v-209h-690v-395h595v-204h-595
v-440z" />
    <glyph glyph-name="Egrave" unicode="&#xc8;" horiz-adv-x="1158" 
d="M756 1550h-206l-271 303h281zM405 208h696v-208h-955v1456h949v-209h-690v-395h595v-204h-595v-440z" />
    <glyph glyph-name="F" unicode="F" horiz-adv-x="1125" 
d="M1074 1247h-669v-425h585v-208h-585v-614h-259v1456h928v-209z" />
    <glyph glyph-name="G" unicode="G" horiz-adv-x="1395" 
d="M1267 189c-63 -81 -214 -209 -539 -209c-368 0 -623 255 -623 700v95c0 445 226 701 601 701c358 0 525 -195 560 -467h-254c-24 150 -106 259 -301 259c-233 0 -345 -178 -345 -491v-97c0 -317 139 -492 371 -492c171 0 237 49 271 85v281h-296v196h555v-561z" />
    <glyph glyph-name="H" unicode="H" horiz-adv-x="1455" 
d="M1048 1456h258v-1456h-258v645h-643v-645h-259v1456h259v-604h643v604z" />
    <glyph glyph-name="I" unicode="I" horiz-adv-x="581" 
d="M420 0h-258v1456h258v-1456z" />
    <glyph glyph-name="Iacute" unicode="&#xcd;" horiz-adv-x="581" 
d="M363 1853h282l-277 -303h-200zM420 0h-258v1456h258v-1456z" />
    <glyph glyph-name="Icircumflex" unicode="&#xce;" horiz-adv-x="581" 
d="M640 1576v-11h-199l-151 155l-150 -155h-196v13l273 276h146zM420 0h-258v1456h258v-1456z" />
    <glyph glyph-name="Idieresis" unicode="&#xcf;" horiz-adv-x="581" 
d="M61 1803c78 0 128 -53 128 -120c0 -66 -50 -118 -128 -118c-79 0 -128 52 -128 118c0 67 49 120 128 120zM522 1802c78 0 128 -53 128 -120s-50 -119 -128 -119c-79 0 -128 52 -128 119s49 120 128 120zM420 0h-258v1456h258v-1456z" />
    <glyph glyph-name="Igrave" unicode="&#xcc;" horiz-adv-x="581" 
d="M418 1550h-206l-271 303h281zM420 0h-258v1456h258v-1456z" />
    <glyph glyph-name="J" unicode="J" horiz-adv-x="1138" 
d="M741 1456h258v-1019c0 -289 -202 -457 -477 -457c-277 0 -477 139 -477 438h259c0 -167 89 -230 218 -230s219 88 219 249v1019z" />
    <glyph glyph-name="K" unicode="K" horiz-adv-x="1293" 
d="M998 0l-429 624l-164 -175v-449h-259v1456h259v-680l140 174l418 506h315l-538 -644l566 -812h-308z" />
    <glyph glyph-name="L" unicode="L" horiz-adv-x="1109" 
d="M405 208h658v-208h-917v1456h259v-1248z" />
    <glyph glyph-name="M" unicode="M" horiz-adv-x="1793" 
d="M1645 1456v-1456h-258v470l26 648l-425 -1118h-185l-424 1115l26 -645v-470h-259v1456h336l414 -1108l413 1108h336z" />
    <glyph glyph-name="N" unicode="N" horiz-adv-x="1454" 
d="M1305 0h-259l-641 1024v-1024h-259v1456h259l643 -1026v1026h257v-1456z" />
    <glyph glyph-name="Ntilde" unicode="&#xd1;" horiz-adv-x="1454" 
d="M1094 1825c0 -149 -97 -258 -224 -258c-131 0 -164 89 -271 89c-50 0 -90 -41 -90 -102l-151 8c0 146 95 261 223 261c108 0 168 -89 270 -89c51 0 91 41 91 103zM1305 0h-259l-641 1024v-1024h-259v1456h259l643 -1026v1026h257v-1456z" />
    <glyph glyph-name="O" unicode="O" horiz-adv-x="1414" 
d="M1313 691c0 -442 -243 -711 -605 -711c-356 0 -608 269 -608 711v73c0 442 250 712 606 712c362 0 607 -270 607 -712v-73zM1053 766c0 323 -127 496 -347 496c-214 0 -346 -173 -346 -496v-75c0 -323 134 -498 348 -498c221 0 345 175 345 498v75z" />
    <glyph glyph-name="Oacute" unicode="&#xd3;" horiz-adv-x="1414" 
d="M781 1846h282l-277 -303h-200zM1313 691c0 -442 -243 -711 -605 -711c-356 0 -608 269 -608 711v73c0 442 250 712 606 712c362 0 607 -270 607 -712v-73zM1053 766c0 323 -127 496 -347 496c-214 0 -346 -173 -346 -496v-75c0 -323 134 -498 348 -498
c221 0 345 175 345 498v75z" />
    <glyph glyph-name="Ocircumflex" unicode="&#xd4;" horiz-adv-x="1414" 
d="M1058 1569v-11h-199l-151 155l-150 -155h-196v13l273 276h146zM1313 691c0 -442 -243 -711 -605 -711c-356 0 -608 269 -608 711v73c0 442 250 712 606 712c362 0 607 -270 607 -712v-73zM1053 766c0 323 -127 496 -347 496c-214 0 -346 -173 -346 -496v-75
c0 -323 134 -498 348 -498c221 0 345 175 345 498v75z" />
    <glyph glyph-name="Odieresis" unicode="&#xd6;" horiz-adv-x="1414" 
d="M479 1796c78 0 128 -53 128 -120c0 -66 -50 -118 -128 -118c-79 0 -128 52 -128 118c0 67 49 120 128 120zM940 1795c78 0 128 -53 128 -120s-50 -119 -128 -119c-79 0 -128 52 -128 119s49 120 128 120zM1313 691c0 -442 -243 -711 -605 -711c-356 0 -608 269 -608 711
v73c0 442 250 712 606 712c362 0 607 -270 607 -712v-73zM1053 766c0 323 -127 496 -347 496c-214 0 -346 -173 -346 -496v-75c0 -323 134 -498 348 -498c221 0 345 175 345 498v75z" />
    <glyph glyph-name="Ograve" unicode="&#xd2;" horiz-adv-x="1414" 
d="M836 1543h-206l-271 303h281zM1313 691c0 -442 -243 -711 -605 -711c-356 0 -608 269 -608 711v73c0 442 250 712 606 712c362 0 607 -270 607 -712v-73zM1053 766c0 323 -127 496 -347 496c-214 0 -346 -173 -346 -496v-75c0 -323 134 -498 348 -498
c221 0 345 175 345 498v75z" />
    <glyph glyph-name="Oslash" unicode="&#xd8;" horiz-adv-x="1412" 
d="M1156 1278c102 -122 161 -298 161 -514v-73c0 -442 -243 -711 -605 -711c-110 0 -210 26 -296 74l-90 -149h-171l144 238c-122 123 -195 311 -195 548v73c0 442 250 712 606 712c129 0 243 -34 337 -99l85 141h169zM364 691c0 -137 24 -247 68 -329l495 818
c-56 54 -129 82 -217 82c-214 0 -346 -173 -346 -496v-75zM1057 691v75c0 110 -15 203 -43 277l-482 -797c51 -35 111 -53 180 -53c221 0 345 175 345 498z" />
    <glyph glyph-name="Otilde" unicode="&#xd5;" horiz-adv-x="1414" 
d="M1076 1825c0 -149 -97 -258 -224 -258c-131 0 -164 89 -271 89c-50 0 -90 -41 -90 -102l-151 8c0 146 95 261 223 261c108 0 168 -89 270 -89c51 0 91 41 91 103zM1313 691c0 -442 -243 -711 -605 -711c-356 0 -608 269 -608 711v73c0 442 250 712 606 712
c362 0 607 -270 607 -712v-73zM1053 766c0 323 -127 496 -347 496c-214 0 -346 -173 -346 -496v-75c0 -323 134 -498 348 -498c221 0 345 175 345 498v75z" />
    <glyph glyph-name="OE" unicode="&#x152;" horiz-adv-x="1974" 
d="M1146 208h696v-208h-869c-89 -10 -187 -21 -288 -21c-347 0 -585 244 -585 597v304c0 353 236 597 583 597c101 0 201 -10 290 -21h863v-209h-690v-395h595v-204h-595v-440zM349 576c0 -263 131 -397 336 -397c70 0 138 6 202 14v1070c-64 8 -133 14 -204 14
c-205 0 -334 -133 -334 -395v-306z" />
    <glyph glyph-name="P" unicode="P" horiz-adv-x="1311" 
d="M705 1456c338 0 532 -196 532 -465c0 -283 -194 -453 -532 -453h-300v-538h-259v1456h559zM705 746c193 0 272 100 272 243c0 134 -79 258 -272 258h-300v-501h300z" />
    <glyph glyph-name="Thorn" unicode="&#xde;" horiz-adv-x="1229" 
d="M638 1178c334 0 517 -185 517 -440c0 -254 -183 -440 -517 -440h-242v-298h-249v1456h249v-278h242zM638 498c191 0 268 117 268 238c0 125 -77 242 -268 242h-242v-480h242z" />
    <glyph glyph-name="Q" unicode="Q" horiz-adv-x="1414" 
d="M1308 691c0 -273 -93 -480 -249 -598l249 -196l-168 -150l-309 245c-41 -8 -84 -12 -129 -12c-356 0 -607 269 -607 711v73c0 442 249 712 605 712c363 0 608 -270 608 -712v-73zM355 691c0 -323 134 -498 347 -498c221 0 346 175 346 498v75c0 323 -127 496 -348 496
c-213 0 -345 -173 -345 -496v-75z" />
    <glyph glyph-name="R" unicode="R" horiz-adv-x="1283" 
d="M924 619l325 -606v-13h-278l-289 558h-277v-558h-259v1456h516c334 0 527 -153 527 -439c0 -197 -100 -328 -265 -398zM405 1247v-481h258c178 0 267 99 267 238c0 148 -81 243 -268 243h-257z" />
    <glyph glyph-name="S" unicode="S" horiz-adv-x="1240" 
d="M599 626c-276 85 -480 207 -480 446c0 237 210 404 519 404c328 0 526 -200 526 -445h-258c0 139 -86 239 -271 239c-175 0 -257 -85 -257 -197c0 -107 101 -172 307 -232c326 -96 481 -230 481 -462c0 -247 -204 -399 -520 -399c-281 0 -572 152 -572 463h259
c0 -183 135 -258 313 -258c173 0 260 78 260 192c0 115 -56 173 -307 249z" />
    <glyph glyph-name="uni1E9E" unicode="&#x1e9e;" horiz-adv-x="1359" 
d="M842 849c273 -28 430 -178 430 -435c0 -283 -216 -435 -498 -435c-119 0 -220 20 -308 55l70 194c49 -22 126 -49 220 -49c169 0 267 95 267 233c0 191 -105 264 -299 264h-141v173l282 336c-66 48 -145 91 -269 91c-175 0 -234 -127 -234 -320v-956h-249v958
c1 344 161 518 483 518c232 0 406 -99 571 -236z" />
    <glyph glyph-name="T" unicode="T" horiz-adv-x="1247" 
d="M1204 1456v-209h-453v-1247h-258v1247h-448v209h1159z" />
    <glyph glyph-name="U" unicode="U" horiz-adv-x="1337" 
d="M1216 1456v-971c0 -334 -242 -505 -546 -505c-314 0 -545 171 -545 505v971h258v-971c0 -206 111 -297 287 -297c178 0 287 91 287 297v971h259z" />
    <glyph glyph-name="Uacute" unicode="&#xda;" horiz-adv-x="1337" 
d="M741 1846h282l-277 -303h-200zM1216 1456v-971c0 -334 -242 -505 -546 -505c-314 0 -545 171 -545 505v971h258v-971c0 -206 111 -297 287 -297c178 0 287 91 287 297v971h259z" />
    <glyph glyph-name="Ucircumflex" unicode="&#xdb;" horiz-adv-x="1337" 
d="M1018 1569v-11h-199l-151 155l-150 -155h-196v13l273 276h146zM1216 1456v-971c0 -334 -242 -505 -546 -505c-314 0 -545 171 -545 505v971h258v-971c0 -206 111 -297 287 -297c178 0 287 91 287 297v971h259z" />
    <glyph glyph-name="Udieresis" unicode="&#xdc;" horiz-adv-x="1337" 
d="M439 1796c78 0 128 -53 128 -120c0 -66 -50 -118 -128 -118c-79 0 -128 52 -128 118c0 67 49 120 128 120zM900 1795c78 0 128 -53 128 -120s-50 -119 -128 -119c-79 0 -128 52 -128 119s49 120 128 120zM1216 1456v-971c0 -334 -242 -505 -546 -505
c-314 0 -545 171 -545 505v971h258v-971c0 -206 111 -297 287 -297c178 0 287 91 287 297v971h259z" />
    <glyph glyph-name="Ugrave" unicode="&#xd9;" horiz-adv-x="1337" 
d="M796 1543h-206l-271 303h281zM1216 1456v-971c0 -334 -242 -505 -546 -505c-314 0 -545 171 -545 505v971h258v-971c0 -206 111 -297 287 -297c178 0 287 91 287 297v971h259z" />
    <glyph glyph-name="V" unicode="V" horiz-adv-x="1327" 
d="M1027 1456h285l-522 -1456h-253l-520 1456h284l362 -1134z" />
    <glyph glyph-name="W" unicode="W" horiz-adv-x="1801" 
d="M1507 1456h258l-334 -1456h-251l-272 1053l-276 -1053h-251l-334 1456h257l222 -1088l274 1088h217l270 -1089z" />
    <glyph glyph-name="X" unicode="X" horiz-adv-x="1297" 
d="M650 934l301 522h299l-438 -722l449 -734h-302l-309 531l-309 -531h-302l449 734l-439 722h299z" />
    <glyph glyph-name="Y" unicode="Y" horiz-adv-x="1251" 
d="M624 771l331 685h287l-487 -921v-535h-261v535l-487 921h287z" />
    <glyph glyph-name="Yacute" unicode="&#xdd;" horiz-adv-x="1251" 
d="M701 1846h282l-277 -303h-200zM624 771l331 685h287l-487 -921v-535h-261v535l-487 921h287z" />
    <glyph glyph-name="Z" unicode="Z" horiz-adv-x="1235" 
d="M395 208h772v-208h-1088v166l750 1081h-745v209h1060v-161z" />
    <glyph glyph-name="K.alt" horiz-adv-x="1321" 
d="M1019 0l-435 620h-173v-620h-259v1456h259v-607h138l419 607h318l-493 -696l537 -760h-311z" />
    <glyph glyph-name="R.alt" horiz-adv-x="1347" 
d="M1197 244c0 -66 14 -168 70 -217v-27h-266c-61 52 -63 200 -63 246v111c0 147 -81 237 -231 237h-296v-594h-259v1456h556c326 0 502 -150 502 -423c0 -160 -92 -263 -248 -327c177 -54 235 -182 235 -347v-115zM683 802c188 0 268 76 268 219c0 135 -74 226 -253 226
h-287v-445h272z" />
    <glyph glyph-name="K.alt2" horiz-adv-x="1336" 
d="M1300 0h-321l-568 665v-665h-259v1456h259v-641h5l528 641h321l-597 -716z" />
    <glyph glyph-name="C.ss06" horiz-adv-x="1401" 
d="M1317 476c-30 -298 -226 -497 -577 -497c-367 0 -635 281 -635 722v53c0 441 263 723 629 723c351 0 554 -203 584 -504h-259c-26 184 -117 295 -325 295c-225 0 -370 -199 -370 -512v-55c0 -313 149 -514 376 -514c206 0 292 109 318 289h259z" />
    <glyph glyph-name="D.ss06" horiz-adv-x="1412" 
d="M599 1456c412 0 705 -287 705 -708v-41c0 -421 -290 -707 -716 -707h-436v1456h447zM1044 707v43c0 300 -158 497 -454 497h-179v-1039h168c310 0 465 209 465 499z" />
    <glyph glyph-name="G.ss06" horiz-adv-x="1441" 
d="M1318 188c-60 -81 -230 -209 -538 -209c-385 0 -675 281 -675 727v38c0 452 267 733 634 733c366 0 543 -196 579 -468h-254c-27 150 -116 259 -320 259c-225 0 -380 -203 -380 -522v-40c0 -319 172 -519 416 -519c159 0 247 45 280 81v279h-287v195h545v-554z" />
    <glyph glyph-name="O.ss06" horiz-adv-x="1503" 
d="M1396 707c0 -419 -270 -728 -644 -728c-368 0 -647 309 -647 728v42c0 418 277 728 645 728c374 0 646 -310 646 -728v-42zM1139 751c0 297 -157 514 -389 514c-226 0 -387 -217 -387 -514v-44c0 -299 163 -517 389 -517c233 0 387 218 387 517v44z" />
    <glyph glyph-name="Q.ss06" horiz-adv-x="1505" 
d="M1396 711c0 -273 -109 -495 -284 -620l238 -194l-168 -150l-297 245c-43 -8 -87 -13 -133 -13c-368 0 -647 302 -647 732v33c0 430 277 733 645 733c374 0 646 -303 646 -733v-33zM1139 711v35c0 309 -157 519 -389 519c-226 0 -387 -210 -387 -519v-35
c0 -310 163 -521 389 -521c233 0 387 211 387 521z" />
    <glyph glyph-name="a" unicode="a" horiz-adv-x="1107" 
d="M980 252c0 -100 14 -178 41 -235v-17h-254c-12 26 -21 62 -27 101c-63 -66 -157 -121 -284 -121c-215 0 -368 139 -368 324c0 231 179 357 493 357h150v70c0 111 -61 183 -186 183c-113 0 -185 -63 -185 -145h-249c0 172 174 333 448 333c244 0 421 -124 421 -373v-477z
M504 179c110 0 194 62 227 126v202h-130c-176 0 -264 -68 -264 -179c0 -85 59 -149 167 -149z" />
    <glyph glyph-name="aacute" unicode="&#xe1;" horiz-adv-x="1107" 
d="M920 1536l-277 -303h-200l195 303h282zM980 252c0 -100 14 -178 41 -235v-17h-254c-12 26 -21 62 -27 101c-63 -66 -157 -121 -284 -121c-215 0 -368 139 -368 324c0 231 179 357 493 357h150v70c0 111 -61 183 -186 183c-113 0 -185 -63 -185 -145h-249
c0 172 174 333 448 333c244 0 421 -124 421 -373v-477zM504 179c110 0 194 62 227 126v202h-130c-176 0 -264 -68 -264 -179c0 -85 59 -149 167 -149z" />
    <glyph glyph-name="acircumflex" unicode="&#xe2;" horiz-adv-x="1107" 
d="M565 1403l-150 -155h-196v13l273 276h146l277 -278v-11h-199zM980 252c0 -100 14 -178 41 -235v-17h-254c-12 26 -21 62 -27 101c-63 -66 -157 -121 -284 -121c-215 0 -368 139 -368 324c0 231 179 357 493 357h150v70c0 111 -61 183 -186 183c-113 0 -185 -63 -185 -145
h-249c0 172 174 333 448 333c244 0 421 -124 421 -373v-477zM504 179c110 0 194 62 227 126v202h-130c-176 0 -264 -68 -264 -179c0 -85 59 -149 167 -149z" />
    <glyph glyph-name="adieresis" unicode="&#xe4;" horiz-adv-x="1107" 
d="M336 1248c-79 0 -128 52 -128 118c0 67 49 120 128 120c78 0 128 -53 128 -120c0 -66 -50 -118 -128 -118zM797 1246c-79 0 -128 52 -128 119s49 120 128 120c78 0 128 -53 128 -120s-50 -119 -128 -119zM980 252c0 -100 14 -178 41 -235v-17h-254c-12 26 -21 62 -27 101
c-63 -66 -157 -121 -284 -121c-215 0 -368 139 -368 324c0 231 179 357 493 357h150v70c0 111 -61 183 -186 183c-113 0 -185 -63 -185 -145h-249c0 172 174 333 448 333c244 0 421 -124 421 -373v-477zM504 179c110 0 194 62 227 126v202h-130c-176 0 -264 -68 -264 -179
c0 -85 59 -149 167 -149z" />
    <glyph glyph-name="agrave" unicode="&#xe0;" horiz-adv-x="1107" 
d="M693 1233h-206l-271 303h281zM980 252c0 -100 14 -178 41 -235v-17h-254c-12 26 -21 62 -27 101c-63 -66 -157 -121 -284 -121c-215 0 -368 139 -368 324c0 231 179 357 493 357h150v70c0 111 -61 183 -186 183c-113 0 -185 -63 -185 -145h-249c0 172 174 333 448 333
c244 0 421 -124 421 -373v-477zM504 179c110 0 194 62 227 126v202h-130c-176 0 -264 -68 -264 -179c0 -85 59 -149 167 -149z" />
    <glyph glyph-name="aring" unicode="&#xe5;" horiz-adv-x="1107" 
d="M565 1217c-127 0 -221 89 -221 204c0 114 94 208 221 208s222 -94 222 -208c0 -115 -95 -204 -222 -204zM565 1534c-66 0 -111 -52 -111 -113c0 -58 45 -110 111 -110c67 0 112 51 112 110c0 61 -45 113 -112 113zM980 252c0 -100 14 -178 41 -235v-17h-254
c-12 26 -21 62 -27 101c-63 -66 -157 -121 -284 -121c-215 0 -368 139 -368 324c0 231 179 357 493 357h150v70c0 111 -61 183 -186 183c-113 0 -185 -63 -185 -145h-249c0 172 174 333 448 333c244 0 421 -124 421 -373v-477zM504 179c110 0 194 62 227 126v202h-130
c-176 0 -264 -68 -264 -179c0 -85 59 -149 167 -149z" />
    <glyph glyph-name="atilde" unicode="&#xe3;" horiz-adv-x="1107" 
d="M438 1346c-50 0 -90 -41 -90 -102l-151 8c0 146 95 261 223 261c108 0 168 -89 270 -89c51 0 91 41 91 103l152 -12c0 -149 -97 -258 -224 -258c-131 0 -164 89 -271 89zM980 252c0 -100 14 -178 41 -235v-17h-254c-12 26 -21 62 -27 101c-63 -66 -157 -121 -284 -121
c-215 0 -368 139 -368 324c0 231 179 357 493 357h150v70c0 111 -61 183 -186 183c-113 0 -185 -63 -185 -145h-249c0 172 174 333 448 333c244 0 421 -124 421 -373v-477zM504 179c110 0 194 62 227 126v202h-130c-176 0 -264 -68 -264 -179c0 -85 59 -149 167 -149z" />
    <glyph glyph-name="ae" unicode="&#xe6;" horiz-adv-x="1729" 
d="M1670 612v-143h-692c12 -165 100 -290 292 -290c149 0 232 50 304 90l72 -169c-55 -44 -192 -121 -392 -121c-173 0 -305 60 -392 160c-71 -82 -206 -160 -411 -160c-245 0 -380 132 -380 334c0 211 164 331 475 331h187v68c0 118 -64 190 -179 190
c-125 0 -203 -69 -203 -151l-248 19c0 192 181 332 452 332c144 0 261 -43 334 -129c82 83 195 130 330 129c288 0 451 -189 451 -490zM1424 643v29c0 130 -58 230 -205 230c-141 0 -218 -109 -237 -259h442zM320 309c0 -81 56 -141 179 -141c82 0 178 46 234 99v207h-185
c-149 0 -228 -78 -228 -165z" />
    <glyph glyph-name="b" unicode="b" horiz-adv-x="1153" 
d="M653 1102c279 0 423 -227 423 -551v-21c0 -320 -146 -550 -421 -550c-131 0 -227 50 -295 137l-12 -117h-225v1536h249v-556c67 78 159 122 281 122zM827 530v21c0 188 -54 348 -237 348c-110 0 -179 -54 -218 -135v-443c39 -82 108 -138 220 -138c177 0 235 152 235 347
z" />
    <glyph glyph-name="c" unicode="c" horiz-adv-x="1072" 
d="M779 360h235c-6 -211 -201 -380 -442 -380c-334 0 -494 246 -494 544v34c0 298 161 544 493 544c262 0 437 -167 443 -409h-235c-6 114 -81 209 -211 209c-194 0 -241 -173 -241 -344v-34c0 -174 46 -344 242 -344c116 0 204 75 210 180z" />
    <glyph glyph-name="ccedilla" unicode="&#xe7;" horiz-adv-x="1072" 
d="M569 180c116 0 204 75 210 180h235c-5 -192 -167 -349 -377 -376l-8 -41c74 -13 150 -58 150 -173c0 -135 -113 -226 -330 -226l-7 142c77 0 134 25 134 88c0 59 -45 76 -150 84l30 133c-255 50 -378 272 -378 533v34c0 298 161 544 493 544c262 0 437 -167 443 -409
h-235c-6 114 -81 209 -211 209c-194 0 -241 -173 -241 -344v-34c0 -174 46 -344 242 -344z" />
    <glyph glyph-name="d" unicode="d" horiz-adv-x="1157" 
d="M780 1536h249v-1536h-225l-12 112c-69 -84 -164 -132 -289 -132c-261 0 -425 234 -425 549v21c0 329 162 552 427 552c117 0 208 -43 275 -118v552zM566 184c107 0 174 51 214 130v458c-41 78 -109 127 -212 127c-172 0 -241 -157 -241 -349v-21c0 -191 67 -345 239 -345
z" />
    <glyph glyph-name="eth" unicode="&#xf0;" horiz-adv-x="1190" 
d="M836 1305c160 -165 255 -391 255 -662v-85c0 -343 -211 -578 -498 -578c-292 0 -492 216 -492 488c0 303 179 504 451 504c99 0 188 -34 257 -88c-35 117 -96 212 -174 288l-202 -134l-78 109l170 112c-87 56 -185 96 -286 122l78 199c157 -33 298 -95 416 -184l178 118
l77 -109zM842 542v103c0 11 0 22 -1 33c-36 54 -113 102 -231 102c-168 0 -260 -119 -260 -312c0 -149 89 -288 247 -288c156 0 245 156 245 362z" />
    <glyph glyph-name="e" unicode="e" horiz-adv-x="1100" 
d="M1038 568v-105h-705c14 -164 116 -283 284 -283c117 0 206 49 270 132l133 -129c-69 -102 -203 -203 -418 -203c-323 0 -520 227 -520 523v41c0 340 212 558 492 558c314 0 464 -221 464 -534zM792 643v19c-6 125 -61 240 -219 240c-132 0 -213 -98 -235 -259h454z" />
    <glyph glyph-name="eacute" unicode="&#xe9;" horiz-adv-x="1100" 
d="M909 1536l-277 -303h-200l195 303h282zM1038 568v-105h-705c14 -164 116 -283 284 -283c117 0 206 49 270 132l133 -129c-69 -102 -203 -203 -418 -203c-323 0 -520 227 -520 523v41c0 340 212 558 492 558c314 0 464 -221 464 -534zM792 643v19c-6 125 -61 240 -219 240
c-132 0 -213 -98 -235 -259h454z" />
    <glyph glyph-name="ecircumflex" unicode="&#xea;" horiz-adv-x="1100" 
d="M554 1403l-150 -155h-196v13l273 276h146l277 -278v-11h-199zM1038 568v-105h-705c14 -164 116 -283 284 -283c117 0 206 49 270 132l133 -129c-69 -102 -203 -203 -418 -203c-323 0 -520 227 -520 523v41c0 340 212 558 492 558c314 0 464 -221 464 -534zM792 643v19
c-6 125 -61 240 -219 240c-132 0 -213 -98 -235 -259h454z" />
    <glyph glyph-name="edieresis" unicode="&#xeb;" horiz-adv-x="1100" 
d="M325 1248c-79 0 -128 52 -128 118c0 67 49 120 128 120c78 0 128 -53 128 -120c0 -66 -50 -118 -128 -118zM786 1246c-79 0 -128 52 -128 119s49 120 128 120c78 0 128 -53 128 -120s-50 -119 -128 -119zM1038 568v-105h-705c14 -164 116 -283 284 -283
c117 0 206 49 270 132l133 -129c-69 -102 -203 -203 -418 -203c-323 0 -520 227 -520 523v41c0 340 212 558 492 558c314 0 464 -221 464 -534zM792 643v19c-6 125 -61 240 -219 240c-132 0 -213 -98 -235 -259h454z" />
    <glyph glyph-name="egrave" unicode="&#xe8;" horiz-adv-x="1100" 
d="M682 1233h-206l-271 303h281zM1038 568v-105h-705c14 -164 116 -283 284 -283c117 0 206 49 270 132l133 -129c-69 -102 -203 -203 -418 -203c-323 0 -520 227 -520 523v41c0 340 212 558 492 558c314 0 464 -221 464 -534zM792 643v19c-6 125 -61 240 -219 240
c-132 0 -213 -98 -235 -259h454z" />
    <glyph glyph-name="f" unicode="f" horiz-adv-x="727" 
d="M629 1353c-109 0 -172 -60 -172 -169v-102h219v-184h-219v-898h-249v898h-165v184h165v102c0 241 146 373 382 373c47 0 94 -7 138 -18l-6 -195c-26 6 -59 9 -93 9z" />
    <glyph glyph-name="g" unicode="g" horiz-adv-x="1162" 
d="M814 1082h226v-1051c0 -293 -203 -457 -495 -457c-121 0 -309 49 -404 178l116 149c78 -91 174 -131 274 -131c160 0 260 90 260 256v72c-67 -75 -158 -118 -278 -118c-265 0 -433 234 -433 549v21c0 329 167 552 435 552c129 0 223 -46 289 -127zM576 184
c108 0 175 49 215 124v470c-41 74 -109 121 -213 121c-172 0 -249 -157 -249 -349v-21c0 -191 75 -345 247 -345z" />
    <glyph glyph-name="h" unicode="h" horiz-adv-x="1139" 
d="M667 1102c213 0 353 -112 353 -407v-695h-249v697c0 149 -66 202 -189 202c-99 0 -171 -49 -214 -126v-773h-249v1536h249v-572c74 87 177 138 299 138z" />
    <glyph glyph-name="i" unicode="i" horiz-adv-x="526" 
d="M264 1496c88 0 141 -57 141 -133c0 -75 -53 -131 -141 -131c-89 0 -141 56 -141 131c0 76 52 133 141 133zM388 0h-249v1082h249v-1082z" />
    <glyph glyph-name="dotlessi" unicode="&#x131;" horiz-adv-x="542" 
d="M392 0h-249v1082h249v-1082z" />
    <glyph glyph-name="iacute" unicode="&#xed;" horiz-adv-x="542" 
d="M343 1528h282l-277 -303h-200zM392 0h-249v1082h249v-1082z" />
    <glyph glyph-name="icircumflex" unicode="&#xee;" horiz-adv-x="542" 
d="M620 1251v-11h-199l-151 155l-150 -155h-196v13l273 276h146zM392 0h-249v1082h249v-1082z" />
    <glyph glyph-name="idieresis" unicode="&#xef;" horiz-adv-x="542" 
d="M41 1478c78 0 128 -53 128 -120c0 -66 -50 -118 -128 -118c-79 0 -128 52 -128 118c0 67 49 120 128 120zM502 1477c78 0 128 -53 128 -120s-50 -119 -128 -119c-79 0 -128 52 -128 119s49 120 128 120zM392 0h-249v1082h249v-1082z" />
    <glyph glyph-name="igrave" unicode="&#xec;" horiz-adv-x="542" 
d="M398 1225h-206l-271 303h281zM392 0h-249v1082h249v-1082z" />
    <glyph glyph-name="j" unicode="j" horiz-adv-x="516" 
d="M254 1496c88 0 141 -57 141 -133c0 -75 -53 -131 -141 -131c-89 0 -141 56 -141 131c0 76 52 133 141 133zM383 1082v-1173c0 -224 -115 -346 -330 -346c-42 0 -91 6 -131 17v196c29 -5 61 -8 88 -8c80 0 124 39 124 141v1173h249z" />
    <glyph glyph-name="k" unicode="k" horiz-adv-x="1072" 
d="M796 0l-315 462l-109 -111v-351h-248v1536h248v-881l74 92l296 335h300l-401 -450l443 -632h-288z" />
    <glyph glyph-name="l" unicode="l" horiz-adv-x="526" 
d="M388 0h-249v1536h249v-1536z" />
    <glyph glyph-name="m" unicode="m" horiz-adv-x="1781" 
d="M1304 1102c220 0 354 -114 354 -402v-700h-249v701c0 157 -73 198 -190 198c-107 0 -176 -63 -204 -155v-23v-721h-249v698c0 152 -73 201 -191 201c-101 0 -166 -45 -203 -117v-782h-249v1082h234l8 -114c72 84 176 134 312 134c132 0 239 -50 295 -165
c71 101 182 165 332 165z" />
    <glyph glyph-name="n" unicode="n" horiz-adv-x="1140" 
d="M676 1102c208 0 344 -108 344 -404v-698h-249v700c0 148 -66 199 -189 199c-96 0 -169 -50 -213 -128v-771h-249v1082h234l8 -125c76 92 184 145 314 145z" />
    <glyph glyph-name="ntilde" unicode="&#xf1;" horiz-adv-x="1140" 
d="M447 1346c-50 0 -90 -41 -90 -102l-151 8c0 146 95 261 223 261c108 0 168 -89 270 -89c51 0 91 41 91 103l152 -12c0 -149 -97 -258 -224 -258c-131 0 -164 89 -271 89zM676 1102c208 0 344 -108 344 -404v-698h-249v700c0 148 -66 199 -189 199
c-96 0 -169 -50 -213 -128v-771h-249v1082h234l8 -125c76 92 184 145 314 145z" />
    <glyph glyph-name="o" unicode="o" horiz-adv-x="1165" 
d="M78 551c0 314 187 551 503 551c320 0 506 -237 506 -551v-21c0 -314 -186 -550 -504 -550s-505 236 -505 550v21zM327 530c0 -192 76 -350 256 -350c177 0 255 158 255 350v21c0 189 -77 351 -257 351c-177 0 -254 -162 -254 -351v-21z" />
    <glyph glyph-name="oacute" unicode="&#xf3;" horiz-adv-x="1165" 
d="M649 1536h282l-277 -303h-200zM78 551c0 314 187 551 503 551c320 0 506 -237 506 -551v-21c0 -314 -186 -550 -504 -550s-505 236 -505 550v21zM327 530c0 -192 76 -350 256 -350c177 0 255 158 255 350v21c0 189 -77 351 -257 351c-177 0 -254 -162 -254 -351v-21z" />
    <glyph glyph-name="ocircumflex" unicode="&#xf4;" horiz-adv-x="1165" 
d="M926 1259v-11h-199l-151 155l-150 -155h-196v13l273 276h146zM78 551c0 314 187 551 503 551c320 0 506 -237 506 -551v-21c0 -314 -186 -550 -504 -550s-505 236 -505 550v21zM327 530c0 -192 76 -350 256 -350c177 0 255 158 255 350v21c0 189 -77 351 -257 351
c-177 0 -254 -162 -254 -351v-21z" />
    <glyph glyph-name="odieresis" unicode="&#xf6;" horiz-adv-x="1165" 
d="M347 1486c78 0 128 -53 128 -120c0 -66 -50 -118 -128 -118c-79 0 -128 52 -128 118c0 67 49 120 128 120zM808 1485c78 0 128 -53 128 -120s-50 -119 -128 -119c-79 0 -128 52 -128 119s49 120 128 120zM78 551c0 314 187 551 503 551c320 0 506 -237 506 -551v-21
c0 -314 -186 -550 -504 -550s-505 236 -505 550v21zM327 530c0 -192 76 -350 256 -350c177 0 255 158 255 350v21c0 189 -77 351 -257 351c-177 0 -254 -162 -254 -351v-21z" />
    <glyph glyph-name="ograve" unicode="&#xf2;" horiz-adv-x="1165" 
d="M704 1233h-206l-271 303h281zM78 551c0 314 187 551 503 551c320 0 506 -237 506 -551v-21c0 -314 -186 -550 -504 -550s-505 236 -505 550v21zM327 530c0 -192 76 -350 256 -350c177 0 255 158 255 350v21c0 189 -77 351 -257 351c-177 0 -254 -162 -254 -351v-21z" />
    <glyph glyph-name="oslash" unicode="&#xf8;" horiz-adv-x="1160" 
d="M890 1004c127 -98 197 -261 197 -453v-21c0 -314 -186 -550 -504 -550c-66 0 -127 10 -182 29l-72 -147h-147l102 209c-133 96 -206 262 -206 459v21c0 314 187 551 503 551c71 0 136 -12 193 -34l71 144h147zM327 530c0 -97 19 -185 61 -248l295 599
c-30 14 -64 21 -102 21c-177 0 -254 -162 -254 -351v-21zM838 530v21c0 90 -17 173 -55 236l-290 -591c26 -10 56 -16 90 -16c177 0 255 158 255 350z" />
    <glyph glyph-name="otilde" unicode="&#xf5;" horiz-adv-x="1165" 
d="M944 1515c0 -149 -97 -258 -224 -258c-131 0 -164 89 -271 89c-50 0 -90 -41 -90 -102l-151 8c0 146 95 261 223 261c108 0 168 -89 270 -89c51 0 91 41 91 103zM78 551c0 314 187 551 503 551c320 0 506 -237 506 -551v-21c0 -314 -186 -550 -504 -550
s-505 236 -505 550v21zM327 530c0 -192 76 -350 256 -350c177 0 255 158 255 350v21c0 189 -77 351 -257 351c-177 0 -254 -162 -254 -351v-21z" />
    <glyph glyph-name="oe" unicode="&#x153;" horiz-adv-x="1850" 
d="M1778 614v-145h-679c14 -161 102 -290 271 -290c143 0 227 41 302 91l79 -162c-72 -63 -205 -129 -398 -129c-166 0 -298 64 -385 171c-85 -107 -213 -171 -379 -171c-318 0 -499 237 -499 551v21c0 314 181 551 497 551c167 0 296 -65 382 -172c85 108 210 173 356 172
c300 0 453 -197 453 -488zM838 530v21c0 189 -71 351 -251 351c-177 0 -248 -162 -248 -351v-21c0 -192 70 -351 250 -351c177 0 249 159 249 351zM1532 649v25c0 127 -61 228 -207 228c-121 0 -198 -108 -221 -253h428z" />
    <glyph glyph-name="p" unicode="p" horiz-adv-x="1153" 
d="M651 1102c275 0 424 -221 424 -550v-21c0 -315 -150 -551 -421 -551c-121 0 -214 43 -282 117v-513h-249v1498h229l10 -109c69 83 164 129 289 129zM826 531v21c0 192 -72 347 -244 347c-104 0 -171 -47 -210 -121v-474c39 -75 104 -124 212 -124c172 0 242 160 242 351z
" />
    <glyph glyph-name="thorn" unicode="&#xfe;" horiz-adv-x="1173" 
d="M657 1102c274 0 423 -221 423 -550v-21c0 -315 -150 -551 -420 -551c-121 0 -214 42 -282 116v-512h-249v1952h249v-551c68 75 159 117 279 117zM831 531v21c0 192 -71 347 -243 347c-103 0 -170 -46 -210 -120v-477c39 -73 105 -122 212 -122c172 0 241 160 241 351z
" />
    <glyph glyph-name="q" unicode="q" horiz-adv-x="1163" 
d="M807 1082h222v-1498h-249v509c-67 -72 -158 -113 -275 -113c-270 0 -427 235 -427 550v21c0 329 156 551 429 551c124 0 218 -46 287 -127zM569 180c105 0 170 48 211 121v485c-41 71 -108 116 -209 116c-173 0 -244 -159 -244 -351v-21c0 -190 70 -350 242 -350z" />
    <glyph glyph-name="r" unicode="r" horiz-adv-x="724" 
d="M610 1102c28 0 70 -6 87 -13l-2 -235c-31 5 -66 8 -99 8c-115 0 -188 -46 -224 -124v-738h-249v1082h237l7 -122c53 88 134 142 243 142z" />
    <glyph glyph-name="s" unicode="s" horiz-adv-x="1057" 
d="M497 452c-230 48 -388 138 -388 321c0 177 161 329 419 329c272 0 436 -150 436 -345h-249c0 84 -63 160 -187 160c-119 0 -177 -62 -177 -133c0 -70 49 -108 220 -144c249 -52 400 -135 400 -332c0 -192 -173 -328 -440 -328c-297 0 -458 184 -458 362h241
c6 -130 114 -177 221 -177c125 0 192 54 192 130c0 69 -37 117 -230 157z" />
    <glyph glyph-name="germandbls" unicode="&#xdf;" horiz-adv-x="1260" 
d="M384 0h-248v1105c0 300 175 453 441 453c229 0 404 -116 404 -358c0 -206 -117 -230 -117 -375c0 -155 322 -233 322 -486c0 -235 -159 -359 -419 -359c-106 0 -235 29 -288 63l50 200c43 -26 131 -63 225 -63c127 0 183 62 183 151c0 173 -321 223 -321 488
c0 169 124 212 124 365c0 112 -71 174 -170 174c-116 0 -186 -73 -186 -255v-1103z" />
    <glyph glyph-name="longs" unicode="&#x17f;" horiz-adv-x="526" 
d="M136 0v1184c0 241 141 373 374 373c52 0 102 -9 153 -21l-24 -190c-26 6 -53 11 -93 11c-105 0 -161 -64 -161 -173v-1184h-249z" />
    <glyph glyph-name="t" unicode="t" horiz-adv-x="683" 
d="M545 186c33 0 67 6 85 10v-192c-39 -13 -91 -24 -162 -24c-165 0 -284 82 -284 306v612h-176v184h176v264h249v-264h190v-184h-190v-595c0 -97 45 -117 112 -117z" />
    <glyph glyph-name="u" unicode="u" horiz-adv-x="1139" 
d="M769 1082h250v-1082h-235l-6 107c-67 -80 -167 -127 -303 -127c-213 0 -358 116 -358 403v699h249v-701c0 -152 78 -197 169 -197c122 0 195 47 234 122v776z" />
    <glyph glyph-name="uacute" unicode="&#xfa;" horiz-adv-x="1139" 
d="M925 1536l-277 -303h-200l195 303h282zM769 1082h250v-1082h-235l-6 107c-67 -80 -167 -127 -303 -127c-213 0 -358 116 -358 403v699h249v-701c0 -152 78 -197 169 -197c122 0 195 47 234 122v776z" />
    <glyph glyph-name="ucircumflex" unicode="&#xfb;" horiz-adv-x="1139" 
d="M570 1403l-150 -155h-196v13l273 276h146l277 -278v-11h-199zM769 1082h250v-1082h-235l-6 107c-67 -80 -167 -127 -303 -127c-213 0 -358 116 -358 403v699h249v-701c0 -152 78 -197 169 -197c122 0 195 47 234 122v776z" />
    <glyph glyph-name="udieresis" unicode="&#xfc;" horiz-adv-x="1139" 
d="M341 1248c-79 0 -128 52 -128 118c0 67 49 120 128 120c78 0 128 -53 128 -120c0 -66 -50 -118 -128 -118zM802 1246c-79 0 -128 52 -128 119s49 120 128 120c78 0 128 -53 128 -120s-50 -119 -128 -119zM769 1082h250v-1082h-235l-6 107c-67 -80 -167 -127 -303 -127
c-213 0 -358 116 -358 403v699h249v-701c0 -152 78 -197 169 -197c122 0 195 47 234 122v776z" />
    <glyph glyph-name="ugrave" unicode="&#xf9;" horiz-adv-x="1139" 
d="M698 1233h-206l-271 303h281zM769 1082h250v-1082h-235l-6 107c-67 -80 -167 -127 -303 -127c-213 0 -358 116 -358 403v699h249v-701c0 -152 78 -197 169 -197c122 0 195 47 234 122v776z" />
    <glyph glyph-name="v" unicode="v" horiz-adv-x="1017" 
d="M733 1082h258l-374 -1082h-219l-376 1082h258l229 -767z" />
    <glyph glyph-name="w" unicode="w" horiz-adv-x="1520" 
d="M1241 1082h242l-293 -1082h-205l-229 735l-225 -735h-205l-293 1082h242l171 -730l219 730h186l221 -741z" />
    <glyph glyph-name="x" unicode="x" horiz-adv-x="1032" 
d="M515 731l203 351h274l-327 -532l339 -550h-274l-213 366l-212 -366h-275l339 550l-327 532h274z" />
    <glyph glyph-name="y" unicode="y" horiz-adv-x="1001" 
d="M723 1082h265l-431 -1246c-39 -108 -122 -273 -336 -273c-44 0 -84 9 -119 18v191c13 -1 35 -2 46 -2c119 0 173 37 209 142l34 91l-380 1079h269l225 -726z" />
    <glyph glyph-name="yacute" unicode="&#xfd;" horiz-adv-x="1001" 
d="M870 1536l-277 -303h-200l195 303h282zM723 1082h265l-431 -1246c-39 -108 -122 -273 -336 -273c-44 0 -84 9 -119 18v191c13 -1 35 -2 46 -2c119 0 173 37 209 142l34 91l-380 1079h269l225 -726z" />
    <glyph glyph-name="ydieresis" unicode="&#xff;" horiz-adv-x="1001" 
d="M286 1248c-79 0 -128 52 -128 118c0 67 49 120 128 120c78 0 128 -53 128 -120c0 -66 -50 -118 -128 -118zM747 1246c-79 0 -128 52 -128 119s49 120 128 120c78 0 128 -53 128 -120s-50 -119 -128 -119zM723 1082h265l-431 -1246c-39 -108 -122 -273 -336 -273
c-44 0 -84 9 -119 18v191c13 -1 35 -2 46 -2c119 0 173 37 209 142l34 91l-380 1079h269l225 -726z" />
    <glyph glyph-name="z" unicode="z" horiz-adv-x="1032" 
d="M393 200h569v-200h-881v162l544 719h-533v201h849v-156z" />
    <glyph glyph-name="g.alt" horiz-adv-x="1083" 
d="M643 214c253 0 400 -101 400 -299c0 -160 -200 -353 -549 -353c-315 0 -486 129 -486 276c0 123 86 207 184 254c-31 30 -50 70 -50 122c0 97 57 157 118 199c-121 65 -193 177 -193 303v22c0 214 183 364 453 364c59 0 113 -7 163 -20h367l2 -154h-135
c37 -54 57 -118 57 -190v-22c0 -201 -181 -365 -452 -365c-53 0 -103 6 -149 18c-20 -19 -35 -44 -35 -79c0 -60 55 -76 127 -76h178zM315 738v-22c0 -89 79 -173 207 -173c126 0 204 84 204 173v22c0 95 -80 172 -206 172c-125 0 -205 -77 -205 -172zM494 -247
c201 0 301 85 301 154c0 67 -40 115 -176 115h-202c-30 0 -60 2 -87 7c-47 -24 -82 -74 -82 -135c0 -76 78 -141 246 -141z" />
    <glyph glyph-name="k.alt" horiz-adv-x="1076" 
d="M792 0l-307 470h-109v-470h-249v1536h249v-867h101l268 413h290l-350 -494l396 -588h-289z" />
    <glyph glyph-name="k.alt2" horiz-adv-x="1072" 
d="M1063 0h-299l-388 489v-489h-249v1560h249v-890l340 412h303l-428 -499z" />
    <glyph glyph-name="b.ss06" horiz-adv-x="1162" 
d="M653 1102c279 0 443 -222 443 -551v-21c0 -315 -166 -550 -441 -550c-133 0 -230 52 -299 142l-18 -122h-215v1536h249v-556c67 78 159 122 281 122zM847 530v21c0 197 -80 348 -257 348c-108 0 -178 -50 -218 -129v-455c41 -78 110 -132 220 -132c177 0 255 156 255 347
z" />
    <glyph glyph-name="c.ss06" horiz-adv-x="1086" 
d="M793 360h234c-9 -211 -205 -380 -446 -380c-334 0 -502 246 -502 544v34c0 298 169 544 501 544c262 0 438 -167 447 -409h-234c-8 114 -86 209 -216 209c-193 0 -249 -173 -249 -344v-34c0 -174 54 -344 250 -344c116 0 207 75 215 180z" />
    <glyph glyph-name="d.ss06" horiz-adv-x="1177" 
d="M800 1536h249v-1536h-215l-18 118c-69 -87 -165 -138 -293 -138c-261 0 -445 234 -445 549v21c0 329 182 552 447 552c117 0 208 -42 275 -118v552zM586 184c104 0 172 49 214 125v469c-42 74 -111 121 -212 121c-172 0 -261 -151 -261 -349v-21c0 -190 87 -345 259 -345
z" />
    <glyph glyph-name="g.ss06" horiz-adv-x="1172" 
d="M835 1082h214v-999c0 -326 -185 -509 -502 -509c-101 0 -239 26 -340 90l52 179c78 -44 171 -73 270 -73c188 0 271 103 271 308v20c-67 -75 -158 -118 -278 -118c-265 0 -444 235 -444 550v21c0 329 178 551 446 551c133 0 228 -48 295 -133zM586 184
c107 0 174 49 214 124v471c-41 74 -108 120 -212 120c-173 0 -261 -151 -261 -348v-21c0 -190 87 -346 259 -346z" />
    <glyph glyph-name="o.ss06" horiz-adv-x="1185" 
d="M74 551c0 314 201 551 517 551c320 0 520 -237 520 -551v-21c0 -314 -200 -550 -518 -550s-519 236 -519 550v21zM323 530c0 -192 90 -350 270 -350c177 0 269 158 269 350v21c0 189 -91 351 -271 351c-177 0 -268 -162 -268 -351v-21z" />
    <glyph glyph-name="p.ss06" horiz-adv-x="1173" 
d="M651 1102c275 0 444 -222 444 -551v-21c0 -315 -170 -550 -441 -550c-121 0 -214 42 -282 116v-512h-249v1498h223l14 -112c69 84 164 132 291 132zM846 530v21c0 197 -92 348 -264 348c-102 0 -169 -45 -210 -117v-484c41 -71 107 -118 212 -118c172 0 262 160 262 350z
" />
    <glyph glyph-name="q.ss06" horiz-adv-x="1183" 
d="M833 1082h216v-1498h-249v509c-67 -72 -158 -113 -275 -113c-270 0 -447 234 -447 549v21c0 329 176 552 449 552c126 0 220 -47 289 -130zM589 180c102 0 169 46 211 117v493c-42 69 -110 112 -209 112c-173 0 -264 -154 -264 -352v-21c0 -190 90 -349 262 -349z" />
    <glyph glyph-name="e.ss07" horiz-adv-x="1100" 
d="M1038 592v-129h-704c18 -164 126 -283 323 -283c110 0 214 36 280 78l58 -171c-67 -50 -188 -107 -365 -107c-337 0 -548 228 -548 535v41c0 332 212 546 492 546c314 0 464 -210 464 -510zM792 643v25c0 127 -58 234 -218 234c-134 0 -217 -98 -238 -259h456z" />
    <glyph glyph-name="g.ss07" horiz-adv-x="1162" 
d="M816 1082h215v-1011c0 -319 -185 -497 -503 -497c-94 0 -222 23 -316 78l52 179c72 -37 156 -61 246 -61c188 0 271 99 271 296v32c-67 -75 -158 -118 -278 -118c-264 0 -424 235 -424 550v21c0 329 158 551 426 551c133 0 228 -48 295 -133zM567 184
c109 0 175 51 214 129v462c-39 76 -106 124 -212 124c-173 0 -241 -151 -241 -348v-21c0 -190 67 -346 239 -346z" />
    <glyph glyph-name="f_f" horiz-adv-x="1454" 
d="M208 1184c0 241 146 373 382 373c47 0 94 -7 138 -18l-6 -195c-26 6 -59 9 -93 9c-109 0 -172 -60 -172 -169v-102h219v-184h-219v-898h-249v898h-165v184h165v102zM1356 1353c-109 0 -172 -60 -172 -169v-102h219v-184h-219v-898h-249v898h-165v184h165v102
c0 241 146 373 382 373c47 0 94 -7 138 -18l-6 -195c-26 6 -59 9 -93 9z" />
    <glyph glyph-name="f_f_i" horiz-adv-x="1838" 
d="M1076 1148v-66h213v-184h-213v-898h-249v898h-370v-898h-249v898h-165v184h165v102c0 241 146 373 382 373c47 0 94 -7 138 -18l-6 -195c-26 6 -59 9 -93 9c-109 0 -172 -60 -172 -169v-102h370v66c0 265 166 409 442 409c106 0 203 -26 309 -60l-38 -205
c-66 22 -148 47 -254 47c-145 0 -210 -64 -210 -191zM1446 1082h249v-1082h-249v1082z" />
    <glyph glyph-name="f_f_l" horiz-adv-x="1838" 
d="M1243 1557c103 0 308 -24 452 -45v-1512h-249v1340c-66 8 -124 13 -174 13c-128 0 -196 -63 -196 -177v-94h219v-184h-219v-898h-249v898h-370v-898h-249v898h-165v184h165v102c0 241 146 373 382 373c47 0 94 -7 138 -18l-6 -195c-26 6 -59 9 -93 9
c-109 0 -172 -60 -172 -169v-102h370v94c0 246 152 381 416 381z" />
    <glyph glyph-name="f_l" horiz-adv-x="1218" 
d="M624 1557c103 0 308 -24 452 -45v-1512h-249v1340c-66 8 -124 13 -174 13c-128 0 -196 -63 -196 -177v-94h219v-184h-219v-898h-249v898h-165v184h165v94c0 246 152 381 416 381z" />
    <glyph glyph-name="fi" unicode="&#xfb01;" horiz-adv-x="1199" 
d="M438 1148v-66h213v-184h-213v-898h-249v898h-165v184h165v66c0 265 165 409 442 409c106 0 202 -26 309 -60l-39 -205c-65 22 -148 47 -253 47c-146 0 -210 -64 -210 -191zM808 1082h249v-1082h-249v1082z" />
    <glyph glyph-name="A.smcp" horiz-adv-x="1184" 
d="M924 0l-94 246h-477l-94 -246h-251l470 1165h229l468 -1165h-251zM425 434h333l-167 437z" />
    <glyph glyph-name="Aacute.smcp" horiz-adv-x="1184" 
d="M949 1566l-277 -303h-200l195 303h282zM924 0l-94 246h-477l-94 -246h-251l470 1165h229l468 -1165h-251zM425 434h333l-167 437z" />
    <glyph glyph-name="Acircumflex.smcp" horiz-adv-x="1184" 
d="M594 1433l-150 -155h-196v13l273 276h146l277 -278v-11h-199zM924 0l-94 246h-477l-94 -246h-251l470 1165h229l468 -1165h-251zM425 434h333l-167 437z" />
    <glyph glyph-name="Adieresis.smcp" horiz-adv-x="1184" 
d="M365 1278c-79 0 -128 52 -128 118c0 67 49 120 128 120c78 0 128 -53 128 -120c0 -66 -50 -118 -128 -118zM826 1276c-79 0 -128 52 -128 119s49 120 128 120c78 0 128 -53 128 -120s-50 -119 -128 -119zM924 0l-94 246h-477l-94 -246h-251l470 1165h229l468 -1165h-251z
M425 434h333l-167 437z" />
    <glyph glyph-name="Agrave.smcp" horiz-adv-x="1184" 
d="M722 1263h-206l-271 303h281zM924 0l-94 246h-477l-94 -246h-251l470 1165h229l468 -1165h-251zM425 434h333l-167 437z" />
    <glyph glyph-name="Aring.smcp" horiz-adv-x="1184" 
d="M594 1247c-127 0 -221 89 -221 204c0 114 94 208 221 208s222 -94 222 -208c0 -115 -95 -204 -222 -204zM594 1564c-66 0 -111 -52 -111 -113c0 -58 45 -110 111 -110c67 0 112 51 112 110c0 61 -45 113 -112 113zM924 0l-94 246h-477l-94 -246h-251l470 1165h229
l468 -1165h-251zM425 434h333l-167 437z" />
    <glyph glyph-name="Atilde.smcp" horiz-adv-x="1184" 
d="M467 1376c-50 0 -90 -41 -90 -102l-151 8c0 146 95 261 223 261c108 0 168 -89 270 -89c51 0 91 41 91 103l152 -12c0 -149 -97 -258 -224 -258c-131 0 -164 89 -271 89zM924 0l-94 246h-477l-94 -246h-251l470 1165h229l468 -1165h-251zM425 434h333l-167 437z" />
    <glyph glyph-name="AE.smcp" horiz-adv-x="1608" 
d="M1004 198h538v-198h-778l-10 258h-377l-128 -258h-268l618 1165h897v-198h-522l10 -261h451v-198h-443zM474 455h272l-19 511z" />
    <glyph glyph-name="B.smcp" horiz-adv-x="1122" 
d="M831 599c145 -35 207 -152 207 -264c0 -227 -163 -335 -448 -335h-474v1165h433c286 0 461 -103 461 -321c0 -105 -57 -200 -179 -245zM561 964h-196v-286h200c125 0 195 48 195 140c0 103 -68 146 -199 146zM590 200c134 0 199 62 199 146c0 97 -54 158 -189 158h-235
v-304h225z" />
    <glyph glyph-name="C.smcp" horiz-adv-x="1153" 
d="M1093 390c-20 -239 -193 -406 -501 -406c-318 0 -514 215 -514 562v72c0 347 202 563 518 563c311 0 473 -174 498 -413h-249c-13 125 -76 213 -249 213c-179 0 -270 -124 -270 -362v-73c0 -233 78 -362 266 -362c168 0 238 69 252 206h249z" />
    <glyph glyph-name="Ccedilla.smcp" horiz-adv-x="1153" 
d="M592 184c168 0 238 69 252 206h249c-18 -215 -159 -371 -411 -401l-8 -40c74 -13 150 -58 150 -173c0 -135 -113 -226 -330 -226l-7 142c77 0 134 25 134 88c0 59 -45 76 -150 84l29 126c-263 39 -422 244 -422 556v72c0 347 202 563 518 563c311 0 473 -174 498 -413
h-249c-13 125 -76 213 -249 213c-179 0 -270 -124 -270 -362v-73c0 -233 78 -362 266 -362z" />
    <glyph glyph-name="D.smcp" horiz-adv-x="1146" 
d="M497 1165c338 0 571 -225 571 -558v-50c0 -333 -232 -557 -575 -557h-377v1165h381zM819 557v52c0 233 -98 355 -322 355h-132v-764h128c229 0 326 126 326 357z" />
    <glyph glyph-name="Eth.smcp" horiz-adv-x="1146" 
d="M497 1165c338 0 571 -225 571 -558v-50c0 -333 -232 -557 -575 -557h-377v498h-209v173h209v494h381zM819 557v52c0 233 -98 355 -322 355h-132v-293h215v-173h-215v-298h128c229 0 326 126 326 357z" />
    <glyph glyph-name="E.smcp" horiz-adv-x="992" 
d="M365 200h585v-200h-834v1165h832v-201h-583v-262h499v-200h-499v-302z" />
    <glyph glyph-name="Eacute.smcp" horiz-adv-x="992" 
d="M901 1566l-277 -303h-200l195 303h282zM365 200h585v-200h-834v1165h832v-201h-583v-262h499v-200h-499v-302z" />
    <glyph glyph-name="Ecircumflex.smcp" horiz-adv-x="992" 
d="M546 1433l-150 -155h-196v13l273 276h146l277 -278v-11h-199zM365 200h585v-200h-834v1165h832v-201h-583v-262h499v-200h-499v-302z" />
    <glyph glyph-name="Edieresis.smcp" horiz-adv-x="992" 
d="M317 1278c-79 0 -128 52 -128 118c0 67 49 120 128 120c78 0 128 -53 128 -120c0 -66 -50 -118 -128 -118zM778 1276c-79 0 -128 52 -128 119s49 120 128 120c78 0 128 -53 128 -120s-50 -119 -128 -119zM365 200h585v-200h-834v1165h832v-201h-583v-262h499v-200h-499
v-302z" />
    <glyph glyph-name="Egrave.smcp" horiz-adv-x="992" 
d="M674 1263h-206l-271 303h281zM365 200h585v-200h-834v1165h832v-201h-583v-262h499v-200h-499v-302z" />
    <glyph glyph-name="F.smcp" horiz-adv-x="966" 
d="M927 964h-562v-291h497v-201h-497v-472h-249v1165h811v-201z" />
    <glyph glyph-name="G.smcp" horiz-adv-x="1190" 
d="M1099 146c-58 -65 -198 -162 -474 -162c-322 0 -542 204 -542 564v68c0 360 205 565 524 565c321 0 464 -161 492 -389h-243c-20 116 -85 189 -243 189c-182 0 -280 -124 -280 -363v-70c0 -240 110 -364 304 -364c129 0 185 32 213 55v195h-245v181h494v-469z" />
    <glyph glyph-name="H.smcp" horiz-adv-x="1245" 
d="M881 1165h249v-1165h-249v472h-516v-472h-249v1165h249v-492h516v492z" />
    <glyph glyph-name="I.smcp" horiz-adv-x="511" 
d="M380 0h-249v1165h249v-1165z" />
    <glyph glyph-name="Iacute.smcp" horiz-adv-x="511" 
d="M329 1566h282l-277 -303h-200zM380 0h-249v1165h249v-1165z" />
    <glyph glyph-name="Icircumflex.smcp" horiz-adv-x="511" 
d="M606 1289v-11h-199l-151 155l-150 -155h-196v13l273 276h146zM380 0h-249v1165h249v-1165z" />
    <glyph glyph-name="Idieresis.smcp" horiz-adv-x="511" 
d="M27 1516c78 0 128 -53 128 -120c0 -66 -50 -118 -128 -118c-79 0 -128 52 -128 118c0 67 49 120 128 120zM488 1515c78 0 128 -53 128 -120s-50 -119 -128 -119c-79 0 -128 52 -128 119s49 120 128 120zM380 0h-249v1165h249v-1165z" />
    <glyph glyph-name="Igrave.smcp" horiz-adv-x="511" 
d="M384 1263h-206l-271 303h281zM380 0h-249v1165h249v-1165z" />
    <glyph glyph-name="J.smcp" horiz-adv-x="983" 
d="M622 1165h250v-796c0 -242 -178 -385 -408 -385c-250 0 -428 117 -428 370h250c0 -120 67 -170 178 -170c98 0 158 63 158 185v796z" />
    <glyph glyph-name="K.smcp" horiz-adv-x="1117" 
d="M833 0l-333 470l-135 -130v-340h-249v1165h249v-511l109 134l327 377h309l-442 -521l463 -644h-298z" />
    <glyph glyph-name="L.smcp" horiz-adv-x="954" 
d="M365 200h552v-200h-801v1165h249v-965z" />
    <glyph glyph-name="M.smcp" horiz-adv-x="1543" 
d="M1426 1165v-1165h-249v305l26 574l-347 -879h-171l-346 876l26 -571v-305h-249v1165h325l330 -835l329 835h326z" />
    <glyph glyph-name="N.smcp" horiz-adv-x="1244" 
d="M1129 0h-249l-515 787v-787h-249v1165h249l515 -787v787h249v-1165z" />
    <glyph glyph-name="Ntilde.smcp" horiz-adv-x="1244" 
d="M992 1545c0 -149 -97 -258 -224 -258c-131 0 -164 89 -271 89c-50 0 -90 -41 -90 -102l-151 8c0 146 95 261 223 261c108 0 168 -89 270 -89c51 0 91 41 91 103zM1129 0h-249l-515 787v-787h-249v1165h249l515 -787v787h249v-1165z" />
    <glyph glyph-name="O.smcp" horiz-adv-x="1216" 
d="M1137 557c0 -356 -214 -573 -528 -573c-312 0 -531 217 -531 573v50c0 356 217 574 529 574c315 0 530 -218 530 -574v-50zM889 609c0 239 -105 371 -282 371c-176 0 -281 -132 -281 -371v-52c0 -238 107 -373 283 -373c177 0 280 135 280 373v52z" />
    <glyph glyph-name="Oacute.smcp" horiz-adv-x="1216" 
d="M680 1566h282l-277 -303h-200zM1137 557c0 -356 -214 -573 -528 -573c-312 0 -531 217 -531 573v50c0 356 217 574 529 574c315 0 530 -218 530 -574v-50zM889 609c0 239 -105 371 -282 371c-176 0 -281 -132 -281 -371v-52c0 -238 107 -373 283 -373
c177 0 280 135 280 373v52z" />
    <glyph glyph-name="Ocircumflex.smcp" horiz-adv-x="1216" 
d="M957 1289v-11h-199l-151 155l-150 -155h-196v13l273 276h146zM1137 557c0 -356 -214 -573 -528 -573c-312 0 -531 217 -531 573v50c0 356 217 574 529 574c315 0 530 -218 530 -574v-50zM889 609c0 239 -105 371 -282 371c-176 0 -281 -132 -281 -371v-52
c0 -238 107 -373 283 -373c177 0 280 135 280 373v52z" />
    <glyph glyph-name="Odieresis.smcp" horiz-adv-x="1216" 
d="M378 1516c78 0 128 -53 128 -120c0 -66 -50 -118 -128 -118c-79 0 -128 52 -128 118c0 67 49 120 128 120zM839 1515c78 0 128 -53 128 -120s-50 -119 -128 -119c-79 0 -128 52 -128 119s49 120 128 120zM1137 557c0 -356 -214 -573 -528 -573c-312 0 -531 217 -531 573
v50c0 356 217 574 529 574c315 0 530 -218 530 -574v-50zM889 609c0 239 -105 371 -282 371c-176 0 -281 -132 -281 -371v-52c0 -238 107 -373 283 -373c177 0 280 135 280 373v52z" />
    <glyph glyph-name="Ograve.smcp" horiz-adv-x="1216" 
d="M735 1263h-206l-271 303h281zM1137 557c0 -356 -214 -573 -528 -573c-312 0 -531 217 -531 573v50c0 356 217 574 529 574c315 0 530 -218 530 -574v-50zM889 609c0 239 -105 371 -282 371c-176 0 -281 -132 -281 -371v-52c0 -238 107 -373 283 -373
c177 0 280 135 280 373v52z" />
    <glyph glyph-name="Oslash.smcp" horiz-adv-x="1216" 
d="M998 1019c88 -99 139 -239 139 -412v-50c0 -356 -214 -573 -528 -573c-106 0 -201 25 -280 72l-78 -112h-164l136 196c-91 99 -145 241 -145 417v50c0 356 217 574 529 574c110 0 207 -26 287 -76l74 106h164zM326 557c0 -85 14 -156 39 -213l406 584
c-44 34 -99 52 -164 52c-176 0 -281 -132 -281 -371v-52zM889 557v52c0 80 -12 148 -34 203l-404 -580c43 -32 96 -48 158 -48c177 0 280 135 280 373z" />
    <glyph glyph-name="Otilde.smcp" horiz-adv-x="1216" 
d="M975 1545c0 -149 -97 -258 -224 -258c-131 0 -164 89 -271 89c-50 0 -90 -41 -90 -102l-151 8c0 146 95 261 223 261c108 0 168 -89 270 -89c51 0 91 41 91 103zM1137 557c0 -356 -214 -573 -528 -573c-312 0 -531 217 -531 573v50c0 356 217 574 529 574
c315 0 530 -218 530 -574v-50zM889 609c0 239 -105 371 -282 371c-176 0 -281 -132 -281 -371v-52c0 -238 107 -373 283 -373c177 0 280 135 280 373v52z" />
    <glyph glyph-name="P.smcp" horiz-adv-x="1135" 
d="M603 1165c294 0 467 -163 467 -388s-173 -371 -467 -371h-238v-406h-249v1165h487zM603 607c152 0 218 70 218 168c0 100 -66 189 -218 189h-238v-357h238z" />
    <glyph glyph-name="Thorn.smcp" horiz-adv-x="1035" 
d="M515 985c294 0 467 -160 467 -380c0 -230 -173 -379 -467 -379h-150v-226h-249v1165h249v-180h150zM515 427c152 0 218 74 218 176c0 95 -66 181 -218 181h-150v-357h150z" />
    <glyph glyph-name="Q.smcp" horiz-adv-x="1216" 
d="M1135 557c0 -215 -78 -379 -209 -475l205 -153l-159 -139l-266 202c-32 -5 -65 -8 -100 -8c-312 0 -531 217 -531 573v50c0 356 217 574 529 574c315 0 531 -218 531 -574v-50zM324 557c0 -238 106 -373 282 -373c178 0 281 135 281 373v52c0 239 -105 371 -283 371
c-175 0 -280 -132 -280 -371v-52z" />
    <glyph glyph-name="R.smcp" horiz-adv-x="1120" 
d="M812 485l272 -474v-11h-267l-233 422h-219v-422h-249v1165h460c287 0 460 -123 460 -352c0 -172 -85 -270 -224 -328zM365 964v-342h211c140 0 211 66 211 170c0 105 -67 172 -211 172h-211z" />
    <glyph glyph-name="S.smcp" horiz-adv-x="1080" 
d="M529 483c-277 67 -427 161 -427 364c0 196 181 334 442 334c284 0 466 -148 466 -360h-249c0 95 -72 171 -217 171c-139 0 -201 -66 -201 -139c0 -76 67 -119 247 -164c277 -65 419 -171 419 -376c0 -206 -178 -329 -452 -329c-244 0 -495 117 -495 378h250
c0 -135 98 -190 253 -190c142 0 202 64 202 135c0 83 -50 131 -238 176z" />
    <glyph glyph-name="uni1E9E.smcp" horiz-adv-x="1122" 
d="M722 674c204 -30 328 -139 328 -318c0 -245 -171 -377 -392 -377c-89 0 -165 20 -232 55l70 190c33 -22 83 -49 145 -49c103 0 164 74 164 179c0 115 -84 157 -237 157h-84v164l199 252c-36 31 -82 58 -150 58c-123 0 -173 -99 -173 -239v-746h-244v748
c1 288 143 433 419 433c184 0 317 -85 432 -213z" />
    <glyph glyph-name="T.smcp" horiz-adv-x="1087" 
d="M1050 1165v-201h-385v-964h-249v964h-380v201h1014z" />
    <glyph glyph-name="U.smcp" horiz-adv-x="1158" 
d="M1057 1165v-766c0 -271 -204 -415 -477 -415c-279 0 -478 144 -478 415v766h248v-766c0 -151 88 -215 230 -215s227 64 227 215v766h250z" />
    <glyph glyph-name="Uacute.smcp" horiz-adv-x="1158" 
d="M649 1566h282l-277 -303h-200zM1057 1165v-766c0 -271 -204 -415 -477 -415c-279 0 -478 144 -478 415v766h248v-766c0 -151 88 -215 230 -215s227 64 227 215v766h250z" />
    <glyph glyph-name="Ucircumflex.smcp" horiz-adv-x="1158" 
d="M926 1289v-11h-199l-151 155l-150 -155h-196v13l273 276h146zM1057 1165v-766c0 -271 -204 -415 -477 -415c-279 0 -478 144 -478 415v766h248v-766c0 -151 88 -215 230 -215s227 64 227 215v766h250z" />
    <glyph glyph-name="Udieresis.smcp" horiz-adv-x="1158" 
d="M347 1516c78 0 128 -53 128 -120c0 -66 -50 -118 -128 -118c-79 0 -128 52 -128 118c0 67 49 120 128 120zM808 1515c78 0 128 -53 128 -120s-50 -119 -128 -119c-79 0 -128 52 -128 119s49 120 128 120zM1057 1165v-766c0 -271 -204 -415 -477 -415
c-279 0 -478 144 -478 415v766h248v-766c0 -151 88 -215 230 -215s227 64 227 215v766h250z" />
    <glyph glyph-name="Ugrave.smcp" horiz-adv-x="1158" 
d="M704 1263h-206l-271 303h281zM1057 1165v-766c0 -271 -204 -415 -477 -415c-279 0 -478 144 -478 415v766h248v-766c0 -151 88 -215 230 -215s227 64 227 215v766h250z" />
    <glyph glyph-name="V.smcp" horiz-adv-x="1150" 
d="M878 1165h263l-439 -1165h-255l-439 1165h264l284 -851l19 -76l17 73z" />
    <glyph glyph-name="W.smcp" horiz-adv-x="1542" 
d="M1267 1165h241l-280 -1165h-242l-212 822l-212 -822h-242l-281 1165h242l174 -860l210 860h220l210 -858z" />
    <glyph glyph-name="X.smcp" horiz-adv-x="1120" 
d="M551 766l238 399h290l-373 -578l395 -587h-296l-250 406l-246 -406h-290l383 587l-374 578h288z" />
    <glyph glyph-name="Y.smcp" horiz-adv-x="1087" 
d="M1082 1165l-418 -760v-405h-249v418l-411 747h274l265 -525l266 525h273z" />
    <glyph glyph-name="Yacute.smcp" horiz-adv-x="1087" 
d="M892 1566l-277 -303h-200l195 303h282zM1082 1165l-418 -760v-405h-249v418l-411 747h274l265 -525l266 525h273z" />
    <glyph glyph-name="Z.smcp" horiz-adv-x="1067" 
d="M385 200h628v-200h-949v143l616 821h-615v201h933v-139z" />
    <glyph glyph-name="ordfeminine" unicode="&#xaa;" horiz-adv-x="913" 
d="M785 706h-177c-7 21 -12 44 -17 68c-41 -44 -106 -82 -201 -82c-160 0 -249 90 -249 228c0 147 111 231 341 231h102v51c0 82 -38 127 -116 127c-86 0 -138 -35 -138 -99l-173 14c0 135 123 233 311 233c175 0 291 -93 291 -276v-314c0 -65 7 -123 26 -181zM316 924
c0 -55 37 -88 117 -88c54 0 115 28 151 61v137h-101c-116 0 -167 -52 -167 -110z" />
    <glyph glyph-name="ordmasculine" unicode="&#xba;" horiz-adv-x="936" 
d="M119 1122c0 207 134 355 346 355c215 0 347 -148 347 -355v-77c0 -207 -132 -354 -345 -354c-214 0 -348 147 -348 354v77zM294 1045c0 -119 56 -208 173 -208c114 0 170 89 170 208v77c0 117 -56 207 -172 207c-115 0 -171 -90 -171 -207v-77z" />
    <glyph glyph-name="alpha" unicode="&#x3b1;" horiz-adv-x="1157" 
d="M1122 194l24 -185c-43 -26 -82 -30 -127 -30c-105 0 -181 50 -219 163c-65 -103 -160 -163 -294 -163c-270 0 -421 220 -421 528v21c0 336 150 574 423 574c126 0 217 -55 281 -151l20 131h214v-755c0 -109 31 -138 73 -138c11 0 20 3 26 5zM569 179
c102 0 164 51 205 130v458c-41 82 -105 135 -203 135c-172 0 -237 -170 -237 -374v-21c0 -184 63 -328 235 -328z" />
    <glyph glyph-name="alpha.alt" horiz-adv-x="1210" 
d="M1119 0h-226l-30 192c-69 -133 -180 -213 -349 -213c-275 0 -429 220 -429 528v21c0 336 152 574 431 574c164 0 274 -79 343 -211l27 191h226l-108 -542zM808 509v49c-18 178 -84 344 -237 344c-172 0 -237 -170 -237 -374v-21c0 -184 63 -328 235 -328
c155 0 216 160 239 330z" />
    <glyph glyph-name="uni05F0" unicode="&#x5f0;" horiz-adv-x="1268" 
d="M208 0v990h-120v199h374v-1189h-254zM842 0v990h-120v199h374v-1189h-254z" />
    <glyph glyph-name="uni05F1" unicode="&#x5f1;" horiz-adv-x="1298" 
d="M208 0v990h-120v199h374v-1189h-254zM888 518v472h-201v199h455v-671h-254z" />
    <glyph glyph-name="uni05F2" unicode="&#x5f2;" horiz-adv-x="1328" 
d="M254 518v472h-201v199h455v-671h-254zM918 518v472h-201v199h455v-671h-254z" />
    <glyph glyph-name="uniFB4F" unicode="&#xfb4f;" horiz-adv-x="1233" 
d="M1148 1189l-374 -688l351 -501h-282l-770 1095v387h254v-343l292 -417l245 467h284z" />
    <glyph glyph-name="uni05D0" unicode="&#x5d0;" horiz-adv-x="1349" 
d="M1264 1189l-370 -679l361 -510h-283l-484 684c-46 -39 -67 -94 -67 -170v-514h-245v411c0 213 65 340 214 410l-260 368h284l325 -459l240 459h285z" />
    <glyph glyph-name="uni05D1" unicode="&#x5d1;" horiz-adv-x="1098" 
d="M917 209l141 -18v-191h-1002v200h608v558c0 160 -74 232 -238 232h-305v199h321c307 0 475 -155 475 -441v-539z" />
    <glyph glyph-name="uni05D2" unicode="&#x5d2;" horiz-adv-x="851" 
d="M79 -11c-21 0 -43 1 -63 5v230c28 -5 54 -6 78 -6c173 4 280 101 322 247v525h-265v199h514v-607c0 -61 7 -128 19 -187l82 -395h-236l-70 315h-6c-28 -178 -181 -326 -375 -326z" />
    <glyph glyph-name="uni05D3" unicode="&#x5d3;" horiz-adv-x="1116" 
d="M60 1189h990v-199h-204v-990h-254v990h-532v199z" />
    <glyph glyph-name="uni05D4" unicode="&#x5d4;" horiz-adv-x="1242" 
d="M847 0v758c0 160 -75 232 -239 232h-462v199h479c307 0 475 -155 475 -441v-748h-253zM144 0v407c0 152 39 215 63 254h204c-14 -56 -22 -127 -22 -231v-430h-245z" />
    <glyph glyph-name="uni05D5" unicode="&#x5d5;" horiz-adv-x="634" 
d="M208 0v990h-120v199h374v-1189h-254z" />
    <glyph glyph-name="uni05D6" unicode="&#x5d6;" horiz-adv-x="762" 
d="M292 0l-145 981l-76 16v192h622l-1 -199h-296l157 -990h-261z" />
    <glyph glyph-name="uni05D7" unicode="&#x5d7;" horiz-adv-x="1272" 
d="M172 0l1 1189h485c313 0 470 -151 472 -452v-737h-253l-1 755c0 162 -68 235 -217 235h-233v-990h-254z" />
    <glyph glyph-name="uni05D8" unicode="&#x5d8;" horiz-adv-x="1288" 
d="M670 -23c-298 0 -498 199 -498 496v716h254v-741c0 -164 97 -274 243 -274c147 0 245 110 245 274v368c0 115 -53 178 -149 178c-38 0 -81 -10 -125 -27l-29 165c67 41 160 69 237 69c198 0 319 -138 319 -364v-364c0 -297 -198 -496 -497 -496z" />
    <glyph glyph-name="uni05D9" unicode="&#x5d9;" horiz-adv-x="664" 
d="M254 518v472h-201v199h455v-671h-254z" />
    <glyph glyph-name="uni05DA" unicode="&#x5da;" horiz-adv-x="1044" 
d="M622 -416v1406h-555v199h805v-1605h-250z" />
    <glyph glyph-name="uni05DB" unicode="&#x5db;" horiz-adv-x="1118" 
d="M414 -18c-104 0 -219 17 -343 49l40 187c106 -26 197 -38 274 -38c207 3 307 101 307 283v527h-576v199h830v-678c0 -368 -209 -529 -532 -529z" />
    <glyph glyph-name="uni05DC" unicode="&#x5dc;" horiz-adv-x="1084" 
d="M1013 1189v-161l-413 -1028h-270l409 990h-666v546h254v-347h686z" />
    <glyph glyph-name="uni05DD" unicode="&#x5dd;" horiz-adv-x="1328" 
d="M172 0v1189h984v-1189h-984zM426 200h476v790h-476v-790z" />
    <glyph glyph-name="uni05DE" unicode="&#x5de;" horiz-adv-x="1333" 
d="M163 0l83 710c13 109 62 213 122 267c5 5 12 10 17 13l-2 4c-55 -9 -149 -35 -209 -57l-56 186c153 55 371 93 546 93c343 0 525 -181 527 -526v-690h-506v199h252v523c0 184 -82 285 -228 285c-120 0 -198 -98 -216 -267l-79 -740h-251z" />
    <glyph glyph-name="uni05DF" unicode="&#x5df;" horiz-adv-x="624" 
d="M202 -416v1406h-123v199h373v-1605h-250z" />
    <glyph glyph-name="uni05E0" unicode="&#x5e0;" horiz-adv-x="783" 
d="M271 -20c-74 0 -134 8 -211 25l3 193c43 -7 93 -11 146 -11c99 0 149 54 149 172v631h-220v199h473v-850c0 -230 -124 -359 -340 -359z" />
    <glyph glyph-name="uni05E1" unicode="&#x5e1;" horiz-adv-x="1319" 
d="M675 -23c-306 0 -515 221 -519 552v95c-2 136 63 290 140 355c5 5 9 8 14 11l-2 4c-44 -7 -124 -27 -179 -43l-49 187c159 47 383 78 559 78c352 0 556 -201 556 -558v-129c0 -331 -208 -552 -520 -552zM675 188c160 0 267 136 267 340v126c0 223 -102 353 -273 353
c-160 0 -257 -135 -260 -367v-112c0 -204 107 -340 266 -340z" />
    <glyph glyph-name="uni05E2" unicode="&#x5e2;" horiz-adv-x="1237" 
d="M812 1189h253v-696c0 -340 -226 -520 -556 -520c-132 0 -283 23 -449 85l56 187c109 -42 208 -67 294 -76c-45 45 -85 107 -102 184l-190 836h255l183 -857c13 -60 28 -107 52 -149c127 40 204 141 204 299v707z" />
    <glyph glyph-name="uni05E3" unicode="&#x5e3;" horiz-adv-x="1254" 
d="M1082 1189v-1605h-251v1406h-342c-35 -75 -55 -179 -55 -273v-120c29 -9 72 -13 128 -13v-189c-160 -13 -275 7 -374 65l-2 178c-2 131 31 270 85 352h-135v199h946z" />
    <glyph glyph-name="uni05E4" unicode="&#x5e4;" horiz-adv-x="1326" 
d="M601 -23c-125 0 -283 25 -416 71l47 187c129 -37 263 -55 354 -55c204 2 314 99 314 283v527h-411c-35 -75 -55 -171 -55 -265v-74c29 -9 72 -13 128 -13v-189c-160 -13 -275 7 -374 65l-2 132c0 131 31 262 85 344h-135v199h1018v-685c0 -368 -240 -529 -553 -527z" />
    <glyph glyph-name="uni05E5" unicode="&#x5e5;" horiz-adv-x="1144" 
d="M751 531l9 -14c45 -66 64 -132 64 -220v-713h-240v739c0 47 -12 86 -38 125l-503 741h284l275 -437l221 437h285z" />
    <glyph glyph-name="uni05E6" unicode="&#x5e6;" horiz-adv-x="1166" 
d="M1108 1189l-355 -654l288 -416v-119h-912v200h586l-672 989h284l277 -432l219 432h285z" />
    <glyph glyph-name="uni05E7" unicode="&#x5e7;" horiz-adv-x="1309" 
d="M589 0v195c180 6 294 115 294 312v483h-711v199h965v-677c0 -319 -212 -503 -548 -512zM188 -416v846c0 150 39 214 62 253h205c-15 -56 -22 -126 -22 -230v-869h-245z" />
    <glyph glyph-name="uni05E8" unicode="&#x5e8;" horiz-adv-x="1013" 
d="M617 0v806c0 116 -70 184 -191 184h-378v199h392c270 0 431 -148 431 -398v-791h-254z" />
    <glyph glyph-name="uni05E9" unicode="&#x5e9;" horiz-adv-x="1705" 
d="M417 1189v-938c120 -51 264 -83 385 -83c278 0 486 115 486 374v647h245v-674c0 -369 -327 -548 -720 -548c-206 0 -438 50 -641 147v1075h245zM668 356c37 51 57 150 57 264v569h246v-519c0 -135 -33 -249 -95 -318z" />
    <glyph glyph-name="uni05EA" unicode="&#x5ea;" horiz-adv-x="1303" 
d="M689 1189c313 0 472 -151 472 -452v-737h-253l-1 755c0 162 -67 235 -216 235h-161c-31 -73 -51 -181 -51 -277v-369c0 -231 -121 -358 -334 -358c-49 0 -88 4 -135 11v199c23 -2 45 -3 67 -3c105 0 155 53 155 169v329c0 98 27 224 79 299h-203v199h581z" />
    <glyph glyph-name="uniFB1F" unicode="&#xfb1f;" horiz-adv-x="1328" 
d="M254 518v472h-201v199h455v-671h-254zM918 518v472h-201v199h455v-671h-254zM163 -303v115h443v-115h-443z" />
    <glyph glyph-name="uniFB20" unicode="&#xfb20;" horiz-adv-x="1269" 
d="M844 1189h253l-33 -701c-16 -340 -225 -527 -555 -527c-132 0 -283 30 -449 92l56 187c120 -47 227 -73 320 -79c-48 45 -93 111 -111 192l-190 836h255l183 -857c13 -60 28 -107 52 -148c113 43 180 142 187 292z" />
    <glyph glyph-name="uniFB21" unicode="&#xfb21;" horiz-adv-x="1852" 
d="M1767 1189l-435 -811l404 -378h-347l-885 836c-32 -70 -49 -151 -49 -268v-568h-246v572c0 172 57 297 173 379l-252 238h336l684 -641l333 641h284z" />
    <glyph glyph-name="uniFB22" unicode="&#xfb22;" horiz-adv-x="1396" 
d="M60 1189h1270v-188l-248 -26v-975h-254v990h-768v199z" />
    <glyph glyph-name="uniFB23" unicode="&#xfb23;" horiz-adv-x="1647" 
d="M1251 0v806c0 116 -70 184 -190 184h-915v199h928c271 0 431 -148 431 -398v-791h-254zM144 0v397c0 122 31 207 40 232l227 32l11 -11c-12 -53 -29 -161 -29 -258v-392h-249z" />
    <glyph glyph-name="uniFB24" unicode="&#xfb24;" horiz-adv-x="1558" 
d="M674 -36c-169 0 -389 25 -603 73l37 199c214 -43 416 -65 557 -65c325 0 466 112 467 319v500h-1020v199h1274v-701c-2 -353 -268 -524 -712 -524z" />
    <glyph glyph-name="uniFB25" unicode="&#xfb25;" horiz-adv-x="1438" 
d="M1367 1189v-161l-596 -1028h-270l560 990h-988v492h254v-293h1040z" />
    <glyph glyph-name="uniFB26" unicode="&#xfb26;" horiz-adv-x="1789" 
d="M130 0v1189h1507v-1189h-1507zM384 200h1000v790h-1000v-790z" />
    <glyph glyph-name="uniFB27" unicode="&#xfb27;" horiz-adv-x="1411" 
d="M1015 0v806c0 116 -69 184 -190 184h-777v199h790c271 0 431 -148 431 -398v-791h-254z" />
    <glyph glyph-name="uniFB28" unicode="&#xfb28;" horiz-adv-x="1789" 
d="M1177 1189c311 0 470 -151 470 -452v-737h-252l-1 755c0 162 -68 235 -217 235h-647c-31 -73 -51 -181 -51 -277v-369c0 -231 -121 -358 -334 -358c-49 0 -88 4 -135 11v199c23 -2 45 -3 67 -3c105 0 155 53 155 169v329c0 98 27 224 79 299h-203v199h1069z" />
    <glyph glyph-name="uniFB2A" unicode="&#xfb2a;" horiz-adv-x="1705" 
d="M1400 1342c-51 0 -91 37 -91 82c0 48 40 83 91 83c53 0 91 -35 91 -83s-38 -82 -91 -82zM417 1189v-938c120 -51 264 -83 385 -83c278 0 486 115 486 374v647h245v-674c0 -369 -327 -548 -720 -548c-206 0 -438 50 -641 147v1075h245zM668 356c37 51 57 150 57 264v569
h246v-519c0 -135 -33 -249 -95 -318z" />
    <glyph glyph-name="uniFB2B" unicode="&#xfb2b;" horiz-adv-x="1705" 
d="M286 1342c-51 0 -91 37 -91 82c0 48 40 83 91 83c52 0 91 -35 91 -83s-39 -82 -91 -82zM417 1189v-938c120 -51 264 -83 385 -83c278 0 486 115 486 374v647h245v-674c0 -369 -327 -548 -720 -548c-206 0 -438 50 -641 147v1075h245zM668 356c37 51 57 150 57 264v569
h246v-519c0 -135 -33 -249 -95 -318z" />
    <glyph glyph-name="uniFB2C" unicode="&#xfb2c;" horiz-adv-x="1705" 
d="M1400 1342c-51 0 -91 37 -91 82c0 48 40 83 91 83c53 0 91 -35 91 -83s-38 -82 -91 -82zM417 1189v-938c120 -51 264 -83 385 -83c278 0 486 115 486 374v647h245v-674c0 -369 -327 -548 -720 -548c-206 0 -438 50 -641 147v1075h245zM668 356c37 51 57 150 57 264v569
h246v-519c0 -135 -33 -249 -95 -318zM1128 520c-52 0 -91 37 -91 83c0 47 39 82 91 82s91 -35 91 -82c0 -48 -39 -83 -91 -83z" />
    <glyph glyph-name="uniFB2D" unicode="&#xfb2d;" horiz-adv-x="1705" 
d="M286 1342c-51 0 -91 37 -91 82c0 48 40 83 91 83c52 0 91 -35 91 -83s-39 -82 -91 -82zM417 1189v-938c120 -51 264 -83 385 -83c278 0 486 115 486 374v647h245v-674c0 -369 -327 -548 -720 -548c-206 0 -438 50 -641 147v1075h245zM668 356c37 51 57 150 57 264v569
h246v-519c0 -135 -33 -249 -95 -318zM1128 520c-52 0 -91 37 -91 83c0 47 39 82 91 82s91 -35 91 -82c0 -48 -39 -83 -91 -83z" />
    <glyph glyph-name="uniFB2E" unicode="&#xfb2e;" horiz-adv-x="1349" 
d="M1264 1189l-370 -679l361 -510h-283l-484 684c-46 -39 -67 -94 -67 -170v-514h-245v411c0 213 65 340 214 410l-260 368h284l325 -459l240 459h285zM469 -303v115h443v-115h-443z" />
    <glyph glyph-name="uniFB2F" unicode="&#xfb2f;" horiz-adv-x="1349" 
d="M1264 1189l-370 -679l361 -510h-283l-484 684c-46 -39 -67 -94 -67 -170v-514h-245v411c0 213 65 340 214 410l-260 368h284l325 -459l240 459h285zM490 -303v115h402v-115h-165c10 -117 55 -125 55 -178c0 -47 -38 -82 -90 -82s-91 37 -91 82c0 53 46 61 54 178h-165z
" />
    <glyph glyph-name="uniFB30" unicode="&#xfb30;" horiz-adv-x="1349" 
d="M1264 1189l-370 -679l361 -510h-283l-484 684c-46 -39 -67 -94 -67 -170v-514h-245v411c0 213 65 340 214 410l-260 368h284l325 -459l240 459h285zM605 272c52 0 91 -35 91 -82c0 -48 -39 -83 -91 -83s-91 37 -91 83c0 47 39 82 91 82z" />
    <glyph glyph-name="uniFB31" unicode="&#xfb31;" horiz-adv-x="1098" 
d="M917 209l141 -18v-191h-1002v200h608v558c0 160 -74 232 -238 232h-305v199h321c307 0 475 -155 475 -441v-539zM455 603c0 -48 -39 -83 -91 -83s-91 37 -91 83c0 47 39 82 91 82s91 -35 91 -82z" />
    <glyph glyph-name="uniFB32" unicode="&#xfb32;" horiz-adv-x="851" 
d="M79 -11c-21 0 -43 1 -63 5v230c28 -5 54 -6 78 -6c173 4 280 101 322 247v525h-265v199h514v-607c0 -61 7 -128 19 -187l82 -395h-236l-70 315h-6c-28 -178 -181 -326 -375 -326zM184 520c-52 0 -91 37 -91 83c0 47 39 82 91 82s91 -35 91 -82c0 -48 -39 -83 -91 -83z
" />
    <glyph glyph-name="uniFB33" unicode="&#xfb33;" horiz-adv-x="1116" 
d="M60 1189h990v-199h-204v-990h-254v990h-532v199zM305 520c-52 0 -91 37 -91 83c0 47 39 82 91 82s91 -35 91 -82c0 -48 -39 -83 -91 -83z" />
    <glyph glyph-name="uniFB34" unicode="&#xfb34;" horiz-adv-x="1242" 
d="M847 0v758c0 160 -75 232 -239 232h-462v199h479c307 0 475 -155 475 -441v-748h-253zM619 520c-52 0 -91 37 -91 83c0 47 39 82 91 82s91 -35 91 -82c0 -48 -39 -83 -91 -83zM144 0v407c0 152 39 215 63 254h204c-14 -56 -22 -127 -22 -231v-430h-245z" />
    <glyph glyph-name="uniFB35" unicode="&#xfb35;" horiz-adv-x="634" 
d="M208 0v990h-120v199h374v-1189h-254zM47 520c-52 0 -91 37 -91 83c0 47 39 82 91 82s91 -35 91 -82c0 -48 -39 -83 -91 -83z" />
    <glyph glyph-name="uniFB36" unicode="&#xfb36;" horiz-adv-x="762" 
d="M292 0l-145 981l-76 16v192h622l-1 -199h-296l157 -990h-261zM608 520c-52 0 -91 37 -91 83c0 47 39 82 91 82s91 -35 91 -82c0 -48 -39 -83 -91 -83z" />
    <glyph glyph-name="uniFB38" unicode="&#xfb38;" horiz-adv-x="1288" 
d="M670 -23c-298 0 -498 199 -498 496v716h254v-741c0 -164 97 -274 243 -274c147 0 245 110 245 274v368c0 115 -53 178 -149 178c-38 0 -81 -10 -125 -27l-29 165c67 41 160 69 237 69c198 0 319 -138 319 -364v-364c0 -297 -198 -496 -497 -496zM670 520
c-52 0 -91 37 -91 83c0 47 39 82 91 82s91 -35 91 -82c0 -48 -39 -83 -91 -83z" />
    <glyph glyph-name="uniFB39" unicode="&#xfb39;" horiz-adv-x="664" 
d="M254 518v472h-201v199h455v-671h-254zM72 689c-52 0 -91 37 -91 83c0 47 39 82 91 82s91 -35 91 -82c0 -48 -39 -83 -91 -83z" />
    <glyph glyph-name="uniFB3A" unicode="&#xfb3a;" horiz-adv-x="1044" 
d="M622 -416v1406h-555v199h805v-1605h-250zM316 551c-52 0 -91 37 -91 83c0 47 39 82 91 82s91 -35 91 -82c0 -48 -39 -83 -91 -83z" />
    <glyph glyph-name="uniFB3B" unicode="&#xfb3b;" horiz-adv-x="1118" 
d="M414 -18c-104 0 -219 17 -343 49l40 187c106 -26 197 -38 274 -38c207 3 307 101 307 283v527h-576v199h830v-678c0 -368 -209 -529 -532 -529zM385 520c-52 0 -91 37 -91 83c0 47 39 82 91 82s91 -35 91 -82c0 -48 -39 -83 -91 -83z" />
    <glyph glyph-name="uniFB3C" unicode="&#xfb3c;" horiz-adv-x="1084" 
d="M1013 1189v-161l-413 -1028h-270l409 990h-666v546h254v-347h686zM391 666c0 -48 -39 -83 -91 -83s-91 37 -91 83c0 47 39 82 91 82s91 -35 91 -82z" />
    <glyph glyph-name="uniFB3E" unicode="&#xfb3e;" horiz-adv-x="1333" 
d="M163 0l83 710c13 109 62 213 122 267c5 5 12 10 17 13l-2 4c-55 -9 -149 -35 -209 -57l-56 186c153 55 371 93 546 93c343 0 525 -181 527 -526v-690h-506v199h252v523c0 184 -82 285 -228 285c-120 0 -198 -98 -216 -267l-79 -740h-251zM706 520c-52 0 -91 37 -91 83
c0 47 39 82 91 82s91 -35 91 -82c0 -48 -39 -83 -91 -83z" />
    <glyph glyph-name="uniFB40" unicode="&#xfb40;" horiz-adv-x="783" 
d="M271 -20c-74 0 -134 8 -211 25l3 193c43 -7 93 -11 146 -11c99 0 149 54 149 172v631h-220v199h473v-850c0 -230 -124 -359 -340 -359zM154 520c-52 0 -91 37 -91 83c0 47 39 82 91 82s91 -35 91 -82c0 -48 -39 -83 -91 -83z" />
    <glyph glyph-name="uniFB41" unicode="&#xfb41;" horiz-adv-x="1319" 
d="M675 -23c-306 0 -515 221 -519 552v95c-2 136 63 290 140 355c5 5 9 8 14 11l-2 4c-44 -7 -124 -27 -179 -43l-49 187c159 47 383 78 559 78c352 0 556 -201 556 -558v-129c0 -331 -208 -552 -520 -552zM675 188c160 0 267 136 267 340v126c0 223 -102 353 -273 353
c-160 0 -257 -135 -260 -367v-112c0 -204 107 -340 266 -340zM676 520c-52 0 -91 37 -91 83c0 47 39 82 91 82s91 -35 91 -82c0 -48 -39 -83 -91 -83z" />
    <glyph glyph-name="uniFB43" unicode="&#xfb43;" horiz-adv-x="1254" 
d="M1082 1189v-1605h-251v1406h-342c-35 -75 -55 -179 -55 -273v-120c29 -9 72 -13 128 -13v-189c-160 -13 -275 7 -374 65l-2 178c-2 131 31 270 85 352h-135v199h946zM635 690c-52 0 -91 37 -91 83c0 47 39 82 91 82s91 -35 91 -82c0 -48 -39 -83 -91 -83z" />
    <glyph glyph-name="uniFB44" unicode="&#xfb44;" horiz-adv-x="1326" 
d="M601 -23c-125 0 -283 25 -416 71l47 187c129 -37 263 -55 354 -55c204 2 314 99 314 283v527h-411c-35 -75 -55 -171 -55 -265v-74c29 -9 72 -13 128 -13v-189c-160 -13 -275 7 -374 65l-2 132c0 131 31 262 85 344h-135v199h1018v-685c0 -368 -240 -529 -553 -527z
M673 705c-52 0 -91 37 -91 83c0 47 39 82 91 82s91 -35 91 -82c0 -48 -39 -83 -91 -83z" />
    <glyph glyph-name="uniFB46" unicode="&#xfb46;" horiz-adv-x="1166" 
d="M1108 1189l-355 -654l288 -416v-119h-912v200h586l-672 989h284l277 -432l219 432h285zM398 396c0 -48 -39 -83 -91 -83s-91 37 -91 83c0 47 39 82 91 82s91 -35 91 -82z" />
    <glyph glyph-name="uniFB47" unicode="&#xfb47;" horiz-adv-x="1309" 
d="M589 0v195c180 6 294 115 294 312v483h-711v199h965v-677c0 -319 -212 -503 -548 -512zM655 520c-52 0 -91 37 -91 83c0 47 39 82 91 82s91 -35 91 -82c0 -48 -39 -83 -91 -83zM188 -416v846c0 150 39 214 62 253h205c-15 -56 -22 -126 -22 -230v-869h-245z" />
    <glyph glyph-name="uniFB48" unicode="&#xfb48;" horiz-adv-x="1013" 
d="M617 0v806c0 116 -70 184 -191 184h-378v199h392c270 0 431 -148 431 -398v-791h-254zM312 520c-52 0 -91 37 -91 83c0 47 39 82 91 82s91 -35 91 -82c0 -48 -39 -83 -91 -83z" />
    <glyph glyph-name="uniFB49" unicode="&#xfb49;" horiz-adv-x="1705" 
d="M417 1189v-938c120 -51 264 -83 385 -83c278 0 486 115 486 374v647h245v-674c0 -369 -327 -548 -720 -548c-206 0 -438 50 -641 147v1075h245zM668 356c37 51 57 150 57 264v569h246v-519c0 -135 -33 -249 -95 -318zM1128 520c-52 0 -91 37 -91 83c0 47 39 82 91 82
s91 -35 91 -82c0 -48 -39 -83 -91 -83z" />
    <glyph glyph-name="uniFB4A" unicode="&#xfb4a;" horiz-adv-x="1303" 
d="M689 1189c313 0 472 -151 472 -452v-737h-253l-1 755c0 162 -67 235 -216 235h-161c-31 -73 -51 -181 -51 -277v-369c0 -231 -121 -358 -334 -358c-49 0 -88 4 -135 11v199c23 -2 45 -3 67 -3c105 0 155 53 155 169v329c0 98 27 224 79 299h-203v199h581zM692 520
c-52 0 -91 37 -91 83c0 47 39 82 91 82s91 -35 91 -82c0 -48 -39 -83 -91 -83z" />
    <glyph glyph-name="uniFB4B" unicode="&#xfb4b;" horiz-adv-x="634" 
d="M278 1342c-52 0 -91 37 -91 82c0 48 39 83 91 83s91 -35 91 -83s-39 -82 -91 -82zM208 0v990h-120v199h374v-1189h-254z" />
    <glyph glyph-name="uniFB4C" unicode="&#xfb4c;" horiz-adv-x="1098" 
d="M765 1497v-135h-537v135h537zM917 209l141 -18v-191h-1002v200h608v558c0 160 -74 232 -238 232h-305v199h321c307 0 475 -155 475 -441v-539z" />
    <glyph glyph-name="uniFB4D" unicode="&#xfb4d;" horiz-adv-x="1118" 
d="M229 1362v135h537v-135h-537zM414 -18c-104 0 -219 17 -343 49l40 187c106 -26 197 -38 274 -38c207 3 307 101 307 283v527h-576v199h830v-678c0 -368 -209 -529 -532 -529z" />
    <glyph glyph-name="uniFB4E" unicode="&#xfb4e;" horiz-adv-x="1326" 
d="M387 1362v135h537v-135h-537zM601 -23c-125 0 -283 25 -416 71l47 187c129 -37 263 -55 354 -55c204 2 314 99 314 283v527h-411c-35 -75 -55 -171 -55 -265v-74c29 -9 72 -13 128 -13v-189c-160 -13 -275 7 -374 65l-2 132c0 131 31 262 85 344h-135v199h1018v-685
c0 -368 -240 -529 -553 -527z" />
    <glyph glyph-name="uni05D2.001" horiz-adv-x="867" 
d="M95 -11c-21 0 -43 1 -63 5v230c28 -5 54 -6 78 -6c173 4 280 101 322 247v525h-265v199h514v-607c0 -61 7 -128 19 -187l82 -395h-236l-70 315h-6c-28 -178 -181 -326 -375 -326z" />
    <glyph glyph-name="uni05E8.001" horiz-adv-x="1026" 
d="M651 0v806c0 116 -70 184 -192 184h-378v199h393c269 0 430 -148 430 -398v-791h-253z" />
    <glyph glyph-name="uni05E8.002" horiz-adv-x="1026" 
d="M651 0v806c0 116 -70 184 -192 184h-378v199h393c269 0 430 -148 430 -398v-791h-253z" />
    <glyph glyph-name="uni05E8.003" horiz-adv-x="1026" 
d="M651 0v806c0 116 -70 184 -192 184h-378v199h393c269 0 430 -148 430 -398v-791h-253z" />
    <glyph glyph-name="uni05E8.004" horiz-adv-x="1026" 
d="M651 0v806c0 116 -70 184 -192 184h-378v199h393c269 0 430 -148 430 -398v-791h-253z" />
    <glyph glyph-name="zero" unicode="0" horiz-adv-x="1166" 
d="M1061 612c0 -459 -189 -632 -477 -632c-287 0 -480 173 -480 632v238c0 459 191 626 478 626c288 0 479 -167 479 -626v-238zM812 887c0 290 -82 389 -230 389c-146 0 -229 -99 -229 -389v-310c0 -290 85 -397 231 -397c148 0 228 107 228 397v310z" />
    <glyph glyph-name="one" unicode="1" horiz-adv-x="1166" 
d="M772 0h-249v1162l-355 -119v208l573 210h31v-1461z" />
    <glyph glyph-name="two" unicode="2" horiz-adv-x="1166" 
d="M1090 0h-982v172l474 514c157 174 203 265 203 362c0 133 -77 228 -213 228c-162 0 -243 -111 -243 -265h-249c0 255 180 465 495 465c293 0 459 -157 459 -402c0 -184 -124 -353 -298 -536l-316 -338h670v-200z" />
    <glyph glyph-name="three" unicode="3" horiz-adv-x="1166" 
d="M805 748c176 -60 245 -194 245 -340c0 -273 -213 -428 -493 -428c-251 0 -479 139 -479 412h249c0 -126 93 -212 234 -212c149 0 240 82 240 229c0 164 -102 236 -265 236h-145v196h145c164 0 243 91 243 221c0 134 -71 214 -218 214c-126 0 -220 -76 -220 -199h-249
c0 231 197 399 465 399c280 0 471 -141 471 -414c0 -116 -74 -246 -223 -314z" />
    <glyph glyph-name="four" unicode="4" horiz-adv-x="1166" 
d="M1114 523v-200h-180v-323h-249v323h-625l-7 152l625 981h256v-933h180zM312 523h373v596l-18 -32z" />
    <glyph glyph-name="five" unicode="5" horiz-adv-x="1166" 
d="M170 722l80 734h786v-213h-580l-39 -344c46 26 127 57 227 57c276 0 439 -186 439 -490c0 -268 -156 -486 -480 -486c-245 0 -461 145 -477 415h242c17 -138 103 -215 234 -215c156 0 233 122 233 294c0 165 -87 283 -256 283c-113 0 -159 -37 -210 -85z" />
    <glyph glyph-name="six" unicode="6" horiz-adv-x="1166" 
d="M667 966c284 0 416 -234 416 -488c0 -280 -175 -498 -475 -498c-315 0 -493 264 -493 572v97c0 437 203 815 723 815h30v-205h-17c-311 0 -454 -183 -481 -414c73 78 176 121 297 121zM605 181c144 0 231 121 231 291c0 161 -81 293 -232 293c-112 0 -203 -71 -239 -159
v-77c0 -230 108 -348 240 -348z" />
    <glyph glyph-name="seven" unicode="7" horiz-adv-x="1166" 
d="M1080 1318l-579 -1318h-262l579 1256h-749v200h1011v-138z" />
    <glyph glyph-name="eight" unicode="8" horiz-adv-x="1166" 
d="M827 750c144 -66 235 -192 235 -353c0 -271 -206 -417 -479 -417c-272 0 -479 146 -479 417c0 161 90 288 233 354c-124 65 -201 180 -201 321c0 260 187 404 447 404s447 -144 447 -404c0 -141 -78 -257 -203 -322zM583 1276c-122 0 -198 -82 -198 -213
c0 -129 76 -215 198 -215c123 0 198 86 198 215c0 126 -76 213 -198 213zM583 180c143 0 229 87 229 231c0 143 -92 237 -231 237c-140 0 -228 -94 -228 -237c0 -144 88 -231 230 -231z" />
    <glyph glyph-name="nine" unicode="9" horiz-adv-x="1166" 
d="M566 1476c317 0 480 -267 480 -592v-82c0 -428 -167 -810 -721 -810h-20v208h18c340 0 456 172 473 405c-72 -75 -172 -126 -283 -126c-282 0 -420 229 -420 488c0 280 173 509 473 509zM567 674c104 0 190 67 231 153v98c0 230 -108 350 -233 350
c-144 0 -226 -137 -226 -301c0 -157 73 -300 228 -300z" />
    <glyph glyph-name="zero.frac" 
d="M683 981c0 -224 -123 -328 -303 -328s-305 104 -305 328v153c0 224 124 330 303 330c181 0 305 -106 305 -330v-153zM495 1146c0 118 -44 166 -117 166c-71 0 -114 -48 -114 -166v-175c0 -121 43 -167 116 -167c72 0 115 46 115 167v175z" />
    <glyph glyph-name="four.frac" 
d="M703 980v-153h-95v-163h-189v163h-356l-10 123l365 503h190v-473h95zM237 980h182v237l-13 -21z" />
    <glyph glyph-name="five.frac" 
d="M97 1048l52 405h494v-151h-339l-21 -146c21 8 75 27 133 27c173 0 271 -94 271 -256c0 -142 -97 -274 -304 -274c-155 0 -301 87 -305 232h188c4 -58 49 -81 117 -81c86 0 115 56 115 124c0 73 -45 122 -131 122c-68 0 -98 -23 -119 -39z" />
    <glyph glyph-name="six.frac" 
d="M447 1190c166 0 252 -112 252 -264c0 -156 -122 -273 -303 -273c-189 0 -319 109 -319 320v51c0 301 188 443 458 443h28v-155h-11c-156 0 -262 -46 -283 -191c41 40 101 69 178 69zM391 804c71 0 119 54 119 122c0 74 -44 114 -120 114c-59 0 -105 -27 -125 -58v-36
c0 -97 48 -142 126 -142z" />
    <glyph glyph-name="seven.frac" 
d="M687 1347l-338 -683h-199l338 637h-434v152h633v-106z" />
    <glyph glyph-name="eight.frac" 
d="M551 1070c81 -36 132 -101 132 -188c0 -153 -129 -229 -303 -229s-305 76 -305 229c0 88 52 153 133 189c-71 35 -114 94 -114 170c0 146 119 223 284 223c168 0 287 -77 287 -223c0 -76 -43 -136 -114 -171zM378 1313c-60 0 -95 -31 -95 -84c0 -51 35 -86 97 -86
s96 35 96 86c0 52 -35 84 -98 84zM380 804c69 0 115 36 115 95s-48 92 -117 92c-68 0 -114 -33 -114 -92s46 -95 116 -95z" />
    <glyph glyph-name="nine.frac" 
d="M373 1464c178 0 304 -106 304 -323v-53c0 -309 -170 -434 -449 -434h-15v150h13c156 0 243 38 260 169c-41 -34 -95 -56 -155 -56c-166 0 -261 97 -261 263c0 155 122 284 303 284zM379 1058c54 0 92 24 110 50v70c0 94 -47 134 -116 134c-72 0 -114 -60 -114 -133
s40 -121 120 -121z" />
    <glyph glyph-name="zero.sup" 
d="M683 317c0 -224 -123 -328 -303 -328s-305 104 -305 328v153c0 224 124 330 303 330c181 0 305 -106 305 -330v-153zM495 482c0 118 -44 166 -117 166c-71 0 -114 -48 -114 -166v-175c0 -121 43 -167 116 -167c72 0 115 46 115 167v175z" />
    <glyph glyph-name="one.sup" 
d="M516 0h-187v568l-199 -48v148l367 120h19v-788z" />
    <glyph glyph-name="two.sup" 
d="M691 0h-613v127l287 263c80 71 110 130 110 166c0 55 -36 93 -104 93c-83 0 -122 -53 -122 -118h-189c0 147 115 269 304 269c190 0 301 -91 301 -243c0 -113 -72 -186 -207 -297l-136 -109h369v-151z" />
    <glyph glyph-name="three.sup" 
d="M535 405c96 -26 148 -85 148 -184c0 -148 -139 -232 -322 -232c-150 0 -307 69 -307 241h190c0 -49 49 -90 127 -90c83 0 123 42 123 96c0 74 -52 101 -137 101h-88v130h88c83 0 123 38 123 96c0 45 -32 86 -114 86c-63 0 -111 -27 -111 -72h-189c0 142 135 223 295 223
c183 0 308 -78 308 -225c0 -77 -50 -138 -134 -170z" />
    <glyph glyph-name="four.sup" 
d="M703 316v-153h-95v-163h-189v163h-356l-10 123l365 503h190v-473h95zM237 316h182v237l-13 -21z" />
    <glyph glyph-name="five.sup" 
d="M97 384l52 405h494v-151h-339l-21 -146c21 8 75 27 133 27c173 0 271 -94 271 -256c0 -142 -97 -274 -304 -274c-155 0 -301 87 -305 232h188c4 -58 49 -81 117 -81c86 0 115 56 115 124c0 73 -45 122 -131 122c-68 0 -98 -23 -119 -39z" />
    <glyph glyph-name="six.sup" 
d="M447 526c166 0 252 -112 252 -264c0 -156 -122 -273 -303 -273c-189 0 -319 109 -319 320v51c0 301 188 443 458 443h28v-155h-11c-156 0 -262 -46 -283 -191c41 40 101 69 178 69zM391 140c71 0 119 54 119 122c0 74 -44 114 -120 114c-59 0 -105 -27 -125 -58v-36
c0 -97 48 -142 126 -142z" />
    <glyph glyph-name="seven.sup" 
d="M687 683l-338 -683h-199l338 637h-434v152h633v-106z" />
    <glyph glyph-name="eight.sup" 
d="M551 406c81 -36 132 -101 132 -188c0 -153 -129 -229 -303 -229s-305 76 -305 229c0 88 52 153 133 189c-71 35 -114 94 -114 170c0 146 119 223 284 223c168 0 287 -77 287 -223c0 -76 -43 -136 -114 -171zM378 649c-60 0 -95 -31 -95 -84c0 -51 35 -86 97 -86
s96 35 96 86c0 52 -35 84 -98 84zM380 140c69 0 115 36 115 95s-48 92 -117 92c-68 0 -114 -33 -114 -92s46 -95 116 -95z" />
    <glyph glyph-name="nine.sup" 
d="M373 800c178 0 304 -106 304 -323v-53c0 -309 -170 -434 -449 -434h-15v150h13c156 0 243 38 260 169c-41 -34 -95 -56 -155 -56c-166 0 -261 97 -261 263c0 155 122 284 303 284zM379 394c54 0 92 24 110 50v70c0 94 -47 134 -116 134c-72 0 -114 -60 -114 -133
s40 -121 120 -121z" />
    <glyph glyph-name="zero.tnum" horiz-adv-x="1256" 
 />
    <glyph glyph-name="one.tnum" horiz-adv-x="1062" 
 />
    <glyph glyph-name="two.tnum" horiz-adv-x="1154" 
 />
    <glyph glyph-name="three.tnum" horiz-adv-x="1111" 
 />
    <glyph glyph-name="four.tnum" horiz-adv-x="1212" 
 />
    <glyph glyph-name="five.tnum" horiz-adv-x="1131" 
 />
    <glyph glyph-name="six.tnum" horiz-adv-x="1166" 
d="M660 966c284 0 416 -234 416 -488c0 -280 -175 -498 -475 -498c-315 0 -493 264 -493 572v97c0 437 203 815 723 815h30v-205h-17c-311 0 -454 -183 -481 -414c73 78 176 121 297 121zM598 181c144 0 231 121 231 291c0 161 -81 293 -232 293c-112 0 -203 -71 -239 -159
v-77c0 -230 108 -348 240 -348z" />
    <glyph glyph-name="seven.tnum" horiz-adv-x="1070" 
 />
    <glyph glyph-name="eight.tnum" horiz-adv-x="1166" 
d="M827 750c144 -66 235 -192 235 -353c0 -271 -206 -417 -479 -417c-272 0 -479 146 -479 417c0 161 90 288 233 354c-124 65 -201 180 -201 321c0 260 187 404 447 404s447 -144 447 -404c0 -141 -78 -257 -203 -322zM583 1276c-122 0 -198 -82 -198 -213
c0 -129 76 -215 198 -215c123 0 198 86 198 215c0 126 -76 213 -198 213zM583 180c143 0 229 87 229 231c0 143 -92 237 -231 237c-140 0 -228 -94 -228 -237c0 -144 88 -231 230 -231z" />
    <glyph glyph-name="nine.tnum" horiz-adv-x="1203" 
 />
    <glyph glyph-name="uni2080" unicode="&#x2080;" 
d="M683 -47c0 -224 -123 -328 -303 -328s-305 104 -305 328v153c0 224 124 330 303 330c181 0 305 -106 305 -330v-153zM495 118c0 118 -44 166 -117 166c-71 0 -114 -48 -114 -166v-175c0 -121 43 -167 116 -167c72 0 115 46 115 167v175z" />
    <glyph glyph-name="uni2081" unicode="&#x2081;" 
d="M516 -364h-187v568l-199 -48v148l367 120h19v-788z" />
    <glyph glyph-name="uni2082" unicode="&#x2082;" 
d="M691 -364h-613v127l287 263c80 71 110 130 110 166c0 55 -36 93 -104 93c-83 0 -122 -53 -122 -118h-189c0 147 115 269 304 269c190 0 301 -91 301 -243c0 -113 -72 -186 -207 -297l-136 -109h369v-151z" />
    <glyph glyph-name="uni2083" unicode="&#x2083;" 
d="M535 41c96 -26 148 -85 148 -184c0 -148 -139 -232 -322 -232c-150 0 -307 69 -307 241h190c0 -49 49 -90 127 -90c83 0 123 42 123 96c0 74 -52 101 -137 101h-88v130h88c83 0 123 38 123 96c0 45 -32 86 -114 86c-63 0 -111 -27 -111 -72h-189c0 142 135 223 295 223
c183 0 308 -78 308 -225c0 -77 -50 -138 -134 -170z" />
    <glyph glyph-name="uni2084" unicode="&#x2084;" 
d="M703 -48v-153h-95v-163h-189v163h-356l-10 123l365 503h190v-473h95zM237 -48h182v237l-13 -21z" />
    <glyph glyph-name="uni2085" unicode="&#x2085;" 
d="M97 20l52 405h494v-151h-339l-21 -146c21 8 75 27 133 27c173 0 271 -94 271 -256c0 -142 -97 -274 -304 -274c-155 0 -301 87 -305 232h188c4 -58 49 -81 117 -81c86 0 115 56 115 124c0 73 -45 122 -131 122c-68 0 -98 -23 -119 -39z" />
    <glyph glyph-name="uni2086" unicode="&#x2086;" 
d="M447 162c166 0 252 -112 252 -264c0 -156 -122 -273 -303 -273c-189 0 -319 109 -319 320v51c0 301 188 443 458 443h28v-155h-11c-156 0 -262 -46 -283 -191c41 40 101 69 178 69zM391 -224c71 0 119 54 119 122c0 74 -44 114 -120 114c-59 0 -105 -27 -125 -58v-36
c0 -97 48 -142 126 -142z" />
    <glyph glyph-name="uni2087" unicode="&#x2087;" 
d="M687 319l-338 -683h-199l338 637h-434v152h633v-106z" />
    <glyph glyph-name="uni2088" unicode="&#x2088;" 
d="M551 42c81 -36 132 -101 132 -188c0 -153 -129 -229 -303 -229s-305 76 -305 229c0 88 52 153 133 189c-71 35 -114 94 -114 170c0 146 119 223 284 223c168 0 287 -77 287 -223c0 -76 -43 -136 -114 -171zM378 285c-60 0 -95 -31 -95 -84c0 -51 35 -86 97 -86
s96 35 96 86c0 52 -35 84 -98 84zM380 -224c69 0 115 36 115 95s-48 92 -117 92c-68 0 -114 -33 -114 -92s46 -95 116 -95z" />
    <glyph glyph-name="uni2089" unicode="&#x2089;" 
d="M373 436c178 0 304 -106 304 -323v-53c0 -309 -170 -434 -449 -434h-15v150h13c156 0 243 38 260 169c-41 -34 -95 -56 -155 -56c-166 0 -261 97 -261 263c0 155 122 284 303 284zM379 30c54 0 92 24 110 50v70c0 94 -47 134 -116 134c-72 0 -114 -60 -114 -133
s40 -121 120 -121z" />
    <glyph glyph-name="uni2070" unicode="&#x2070;" 
d="M683 984c0 -224 -123 -328 -303 -328s-305 104 -305 328v153c0 224 124 330 303 330c181 0 305 -106 305 -330v-153zM495 1149c0 118 -44 166 -117 166c-71 0 -114 -48 -114 -166v-175c0 -121 43 -167 116 -167c72 0 115 46 115 167v175z" />
    <glyph glyph-name="uni00B9" unicode="&#xb9;" 
d="M516 667h-187v568l-199 -48v148l367 120h19v-788z" />
    <glyph glyph-name="uni00B2" unicode="&#xb2;" 
d="M691 667h-613v127l287 263c80 71 110 130 110 166c0 55 -36 93 -104 93c-83 0 -122 -53 -122 -118h-189c0 147 115 269 304 269c190 0 301 -91 301 -243c0 -113 -72 -186 -207 -297l-136 -109h369v-151z" />
    <glyph glyph-name="uni00B3" unicode="&#xb3;" 
d="M535 1072c96 -26 148 -85 148 -184c0 -148 -139 -232 -322 -232c-150 0 -307 69 -307 241h190c0 -49 49 -90 127 -90c83 0 123 42 123 96c0 74 -52 101 -137 101h-88v130h88c83 0 123 38 123 96c0 45 -32 86 -114 86c-63 0 -111 -27 -111 -72h-189c0 142 135 223 295 223
c183 0 308 -78 308 -225c0 -77 -50 -138 -134 -170z" />
    <glyph glyph-name="uni2074" unicode="&#x2074;" 
d="M703 983v-153h-95v-163h-189v163h-356l-10 123l365 503h190v-473h95zM237 983h182v237l-13 -21z" />
    <glyph glyph-name="uni2075" unicode="&#x2075;" 
d="M97 1051l52 405h494v-151h-339l-21 -146c21 8 75 27 133 27c173 0 271 -94 271 -256c0 -142 -97 -274 -304 -274c-155 0 -301 87 -305 232h188c4 -58 49 -81 117 -81c86 0 115 56 115 124c0 73 -45 122 -131 122c-68 0 -98 -23 -119 -39z" />
    <glyph glyph-name="uni2076" unicode="&#x2076;" 
d="M447 1193c166 0 252 -112 252 -264c0 -156 -122 -273 -303 -273c-189 0 -319 109 -319 320v51c0 301 188 443 458 443h28v-155h-11c-156 0 -262 -46 -283 -191c41 40 101 69 178 69zM391 807c71 0 119 54 119 122c0 74 -44 114 -120 114c-59 0 -105 -27 -125 -58v-36
c0 -97 48 -142 126 -142z" />
    <glyph glyph-name="uni2077" unicode="&#x2077;" 
d="M687 1350l-338 -683h-199l338 637h-434v152h633v-106z" />
    <glyph glyph-name="uni2078" unicode="&#x2078;" 
d="M551 1073c81 -36 132 -101 132 -188c0 -153 -129 -229 -303 -229s-305 76 -305 229c0 88 52 153 133 189c-71 35 -114 94 -114 170c0 146 119 223 284 223c168 0 287 -77 287 -223c0 -76 -43 -136 -114 -171zM378 1316c-60 0 -95 -31 -95 -84c0 -51 35 -86 97 -86
s96 35 96 86c0 52 -35 84 -98 84zM380 807c69 0 115 36 115 95s-48 92 -117 92c-68 0 -114 -33 -114 -92s46 -95 116 -95z" />
    <glyph glyph-name="uni2079" unicode="&#x2079;" 
d="M373 1467c178 0 304 -106 304 -323v-53c0 -309 -170 -434 -449 -434h-15v150h13c156 0 243 38 260 169c-41 -34 -95 -56 -155 -56c-166 0 -261 97 -261 263c0 155 122 284 303 284zM379 1061c54 0 92 24 110 50v70c0 94 -47 134 -116 134c-72 0 -114 -60 -114 -133
s40 -121 120 -121z" />
    <glyph glyph-name="fraction" unicode="&#x2044;" horiz-adv-x="923" 
d="M171 109l-128 73l711 1138l128 -73z" />
    <glyph glyph-name="zero.smcp" horiz-adv-x="1055" 
d="M966 479c0 -339 -176 -495 -438 -495s-440 156 -440 495v207c0 338 176 495 438 495c263 0 440 -157 440 -495v-207zM717 707c0 191 -69 273 -191 273c-120 0 -189 -82 -189 -273v-248c0 -193 71 -275 191 -275c121 0 189 82 189 275v248z" />
    <glyph glyph-name="one.smcp" horiz-adv-x="1055" 
d="M713 0h-249v872l-314 -80v198l535 175h28v-1165z" />
    <glyph glyph-name="two.smcp" horiz-adv-x="1055" 
d="M985 0h-893v170l424 396c132 117 175 199 175 262c0 89 -62 153 -172 153c-141 0 -204 -80 -204 -188h-250c0 213 166 388 448 388c269 0 427 -136 427 -350c0 -160 -107 -271 -285 -429l-246 -202h576v-200z" />
    <glyph glyph-name="three.smcp" horiz-adv-x="1055" 
d="M746 598c147 -42 214 -137 214 -272c0 -218 -198 -342 -458 -342c-223 0 -441 104 -441 346h249c0 -83 78 -146 202 -146c129 0 199 63 199 157c0 116 -85 164 -222 164h-128v178h128c137 0 202 63 202 154c0 83 -55 144 -184 144c-104 0 -182 -47 -182 -125h-249
c0 200 187 325 426 325c260 0 438 -115 438 -332c0 -106 -68 -201 -194 -251z" />
    <glyph glyph-name="four.smcp" horiz-adv-x="1055" 
d="M1006 448v-200h-153v-248h-249v248h-545l-10 158l551 759h253v-717h153zM297 448h307v400l-19 -32z" />
    <glyph glyph-name="five.smcp" horiz-adv-x="1055" 
d="M132 571l74 594h711v-203h-505l-33 -239c37 16 113 43 201 43c252 0 399 -143 399 -384c0 -211 -140 -398 -438 -398c-225 0 -429 122 -441 337h245c11 -97 85 -137 196 -137c134 0 189 88 189 202c0 117 -75 198 -213 198c-104 0 -146 -33 -186 -62z" />
    <glyph glyph-name="six.smcp" horiz-adv-x="1054" 
d="M614 775c250 0 372 -173 372 -390c0 -228 -167 -401 -436 -401c-282 0 -456 179 -456 467v77c0 409 226 651 662 651h34v-204h-15c-262 0 -404 -98 -428 -308c61 62 152 108 267 108zM545 184c119 0 194 86 194 200c0 116 -69 192 -193 192c-94 0 -170 -47 -203 -103v-47
c0 -163 86 -242 202 -242z" />
    <glyph glyph-name="seven.smcp" horiz-adv-x="1055" 
d="M978 1026l-511 -1026h-263l512 964h-659v201h921v-139z" />
    <glyph glyph-name="eight.smcp" horiz-adv-x="1055" 
d="M767 600c122 -53 199 -151 199 -280c0 -222 -189 -336 -439 -336c-249 0 -439 114 -439 336c0 129 77 227 199 281c-106 52 -171 141 -171 253c0 213 172 327 409 327c240 0 413 -114 413 -327c0 -112 -65 -202 -171 -254zM525 981c-99 0 -159 -53 -159 -140
s60 -145 161 -145c102 0 162 58 162 145c0 85 -62 140 -164 140zM527 184c115 0 191 59 191 156c0 98 -78 156 -193 156c-114 0 -188 -58 -188 -156c0 -97 74 -156 190 -156z" />
    <glyph glyph-name="nine.smcp" horiz-adv-x="1055" 
d="M515 1181c274 0 440 -178 440 -477v-71c0 -415 -206 -645 -654 -645h-20v200h18c260 0 383 87 404 279c-59 -53 -143 -90 -242 -90c-250 0 -382 158 -382 390c0 226 167 414 436 414zM519 565c88 0 156 44 187 97v90c0 155 -84 229 -191 229c-120 0 -189 -97 -189 -214
c0 -114 63 -202 193 -202z" />
    <glyph glyph-name="asterisk" unicode="*" horiz-adv-x="909" 
d="M333 971l-305 88l55 171l303 -118l-15 345h181l-16 -352l298 116l55 -173l-312 -88l202 -266l-147 -107l-181 289l-178 -280l-147 103z" />
    <glyph glyph-name="backslash" unicode="\" horiz-adv-x="857" 
d="M18 1456h247l608 -1581h-248z" />
    <glyph glyph-name="periodcentered" unicode="&#xb7;" horiz-adv-x="583" 
d="M286 850c91 0 145 -59 145 -137c0 -77 -54 -136 -145 -136s-144 59 -144 136c0 78 53 137 144 137z" />
    <glyph glyph-name="bullet" unicode="&#x2022;" horiz-adv-x="719" 
d="M136 771c0 126 87 217 223 217c141 0 226 -91 226 -217v-40c0 -126 -85 -215 -224 -215c-138 0 -225 89 -225 215v40z" />
    <glyph glyph-name="colon" unicode=":" horiz-adv-x="548" 
d="M274 1107c90 0 144 -60 144 -138c0 -76 -54 -136 -144 -136c-91 0 -145 60 -145 136c0 78 54 138 145 138zM274 262c90 0 144 -60 144 -138c0 -76 -54 -136 -144 -136c-91 0 -145 60 -145 136c0 78 54 138 145 138z" />
    <glyph glyph-name="comma" unicode="," horiz-adv-x="457" 
d="M353 61c0 -137 -74 -298 -190 -394l-133 77c55 90 102 179 102 308v185h222z" />
    <glyph glyph-name="ellipsis" unicode="&#x2026;" horiz-adv-x="1455" 
d="M283 262c90 0 144 -60 144 -138c0 -76 -54 -136 -144 -136c-91 0 -145 60 -145 136c0 78 54 138 145 138zM742 262c90 0 144 -60 144 -138c0 -76 -54 -136 -144 -136c-91 0 -145 60 -145 136c0 78 54 138 145 138zM1186 262c90 0 144 -60 144 -138
c0 -76 -54 -136 -144 -136c-91 0 -145 60 -145 136c0 78 54 138 145 138z" />
    <glyph glyph-name="exclam" unicode="!" horiz-adv-x="550" 
d="M386 432h-213l-25 1024h263zM282 253c88 0 141 -59 141 -134s-53 -133 -141 -133c-89 0 -141 58 -141 133s52 134 141 134z" />
    <glyph glyph-name="exclamdown" unicode="&#xa1;" horiz-adv-x="548" 
d="M275 834c-89 0 -142 59 -142 134s53 133 142 133c88 0 140 -58 140 -133s-52 -134 -140 -134zM170 659h214l25 -1024h-264z" />
    <glyph glyph-name="numbersign" unicode="#" horiz-adv-x="1246" 
d="M1209 879h-240l-57 -309h221v-160h-250l-76 -410h-170l76 410h-220l-76 -410h-169l76 410h-231v160h260l57 309h-242v161h272l77 416h169l-77 -416h221l77 416h169l-77 -416h210v-161zM743 570l57 309h-221l-57 -309h221z" />
    <glyph glyph-name="period" unicode="." horiz-adv-x="575" 
d="M279 262c90 0 144 -60 144 -138c0 -76 -54 -136 -144 -136c-91 0 -145 60 -145 136c0 78 54 138 145 138z" />
    <glyph glyph-name="question" unicode="?" horiz-adv-x="1000" 
d="M350 431c1 188 41 269 162 385c90 86 162 151 162 263c0 123 -62 190 -178 190c-95 0 -187 -52 -189 -179h-249c4 255 192 386 438 386c270 0 428 -142 428 -387c0 -177 -121 -295 -250 -415c-72 -67 -92 -143 -93 -243h-231zM472 255c88 0 141 -58 141 -134
c0 -75 -53 -133 -141 -133s-141 58 -141 133c0 76 53 134 141 134z" />
    <glyph glyph-name="questiondown" unicode="&#xbf;" horiz-adv-x="1000" 
d="M517 835c-89 0 -141 59 -141 134s52 133 141 133c88 0 140 -58 140 -133s-52 -134 -140 -134zM635 659c-1 -187 -41 -264 -160 -382c-85 -87 -159 -152 -159 -272c0 -123 68 -184 182 -184c99 0 190 55 191 182h250c-4 -255 -192 -389 -438 -389
c-273 0 -434 139 -434 387c0 178 124 300 247 419c73 68 89 139 90 239h231z" />
    <glyph glyph-name="quotedbl" unicode="&#x22;" horiz-adv-x="663" 
d="M275 1400l-36 -391h-143v527h179v-136zM579 1400l-36 -391h-142v527h178v-136z" />
    <glyph glyph-name="quotesingle" unicode="'" horiz-adv-x="344" 
d="M268 1408l-26 -392h-162v520h188v-128z" />
    <glyph glyph-name="semicolon" unicode=";" horiz-adv-x="494" 
d="M253 1107c90 0 144 -60 144 -138c0 -76 -54 -136 -144 -136c-91 0 -145 60 -145 136c0 78 54 138 145 138zM372 61c0 -137 -74 -298 -190 -394l-133 77c55 90 102 179 102 308v185h222z" />
    <glyph glyph-name="slash" unicode="/" horiz-adv-x="805" 
d="M195 -125h-195l569 1581h194z" />
    <glyph glyph-name="underscore" unicode="_" horiz-adv-x="923" 
d="M920 -196h-917v196h917v-196z" />
    <glyph glyph-name="braceleft" unicode="{" horiz-adv-x="686" 
d="M479 106c0 -151 41 -277 177 -323l-49 -143c-275 77 -360 256 -360 466v203c0 133 -57 219 -192 219v182c135 0 192 85 192 219v203c0 210 85 388 360 465l49 -142c-136 -46 -177 -172 -177 -323v-203c0 -132 -52 -247 -172 -310c120 -63 172 -178 172 -310v-203z" />
    <glyph glyph-name="braceright" unicode="}" horiz-adv-x="686" 
d="M438 929c0 -134 56 -219 191 -219v-182c-135 0 -191 -86 -191 -219v-203c0 -210 -85 -389 -360 -466l-49 143c136 46 176 172 176 323v203c0 136 56 249 182 310c-126 60 -182 174 -182 310v203c0 151 -40 277 -176 323l49 142c275 -77 360 -255 360 -465v-203z" />
    <glyph glyph-name="bracketleft" unicode="[" horiz-adv-x="563" 
d="M542 1486h-162v-1619h162v-194h-411v2008h411v-195z" />
    <glyph glyph-name="bracketright" unicode="]" horiz-adv-x="563" 
d="M13 1681h412v-2008h-412v194h163v1619h-163v195z" />
    <glyph glyph-name="parenleft" unicode="(" horiz-adv-x="715" 
d="M128 592c0 576 291 936 498 1037l49 -143c-151 -115 -323 -393 -323 -892v-21c0 -499 172 -777 323 -898l-49 -137c-207 101 -498 461 -498 1037v17z" />
    <glyph glyph-name="parenright" unicode=")" horiz-adv-x="723" 
d="M596 575c0 -565 -295 -936 -507 -1037l-49 137c150 115 323 399 323 898v21c0 499 -182 784 -323 898l49 137c212 -101 507 -471 507 -1037v-17z" />
    <glyph glyph-name="emdash" unicode="&#x2014;" horiz-adv-x="1581" 
d="M1488 618h-1362v202h1362v-202z" />
    <glyph glyph-name="endash" unicode="&#x2013;" horiz-adv-x="1318" 
d="M1178 618h-1022v202h1022v-202z" />
    <glyph glyph-name="hyphen" unicode="-" horiz-adv-x="689" 
d="M606 520h-529v200h529v-200z" />
    <glyph glyph-name="uni00AD" unicode="&#xad;" horiz-adv-x="600" 
d="M606 520h-529v200h529v-200z" />
    <glyph glyph-name="guillemotleft" unicode="&#xab;" horiz-adv-x="998" 
d="M542 936l-246 -399l246 -400h-170l-287 390v19l287 390h170zM905 936l-246 -399l246 -400h-170l-287 390v19l287 390h170z" />
    <glyph glyph-name="guillemotright" unicode="&#xbb;" horiz-adv-x="998" 
d="M549 527l-287 -390h-170l246 400l-246 399h170l287 -390v-19zM638 936l287 -390v-19l-287 -390h-170l246 400l-246 399h170z" />
    <glyph glyph-name="guilsinglleft" unicode="&#x2039;" horiz-adv-x="628" 
d="M565 936l-246 -399l246 -400h-170l-287 390v19l287 390h170z" />
    <glyph glyph-name="guilsinglright" unicode="&#x203a;" horiz-adv-x="618" 
d="M254 936l287 -390v-19l-287 -390h-170l246 400l-246 399h170z" />
    <glyph glyph-name="quotedblbase" unicode="&#x201e;" horiz-adv-x="783" 
d="M360 71c0 -133 -71 -296 -178 -390l-130 77c56 90 88 186 88 312v186h220v-185zM688 71c0 -133 -74 -296 -182 -390l-129 77c55 90 91 186 91 312v186h221z" />
    <glyph glyph-name="quotedblleft" unicode="&#x201c;" horiz-adv-x="794" 
d="M109 1194c0 126 75 281 183 370l125 -78c-55 -83 -92 -173 -92 -291v-139h-216v138zM446 1194c0 126 75 281 183 370l125 -78c-55 -83 -92 -173 -92 -291v-139h-216v138z" />
    <glyph glyph-name="quotedblright" unicode="&#x201d;" horiz-adv-x="801" 
d="M373 1392c0 -126 -74 -280 -182 -370l-125 78c55 84 92 174 92 291v145h215v-144zM709 1392c0 -126 -74 -280 -182 -370l-125 78c55 84 92 174 92 291v145h215v-144z" />
    <glyph glyph-name="quoteleft" unicode="&#x2018;" horiz-adv-x="452" 
d="M100 1194c0 126 75 281 183 370l125 -78c-55 -83 -92 -173 -92 -291v-139h-216v138z" />
    <glyph glyph-name="quoteright" unicode="&#x2019;" horiz-adv-x="448" 
d="M360 1392c0 -126 -74 -280 -182 -370l-125 78c55 84 92 174 92 291v145h215v-144z" />
    <glyph glyph-name="quotesinglbase" unicode="&#x201a;" horiz-adv-x="468" 
d="M360 71c0 -126 -75 -281 -182 -370l-126 77c56 84 88 175 88 292v136h220v-135z" />
    <glyph glyph-name="uni05F3" unicode="&#x5f3;" horiz-adv-x="407" 
d="M170 879l-153 64c62 85 99 192 99 294v201h228l-1 -179c0 -143 -72 -291 -173 -380z" />
    <glyph glyph-name="uni05F4" unicode="&#x5f4;" horiz-adv-x="812" 
d="M190 879l-153 64c62 85 99 192 99 294v201h228l-1 -179c0 -143 -72 -291 -173 -380zM558 879l-153 64c62 85 99 192 99 294v201h228l-1 -179c0 -143 -72 -291 -173 -380z" />
    <glyph glyph-name="uni05BE" unicode="&#x5be;" horiz-adv-x="556" 
d="M496 990h-436v199h436v-199z" />
    <glyph glyph-name="space" unicode=" " horiz-adv-x="510" 
 />
    <glyph glyph-name="uni200F" unicode="&#x200f;" horiz-adv-x="0" 
d="M-679 1321h413v-1521h-166v1363h-239l164 -161h-202l-229 240l223 251h202z" />
    <glyph glyph-name="uni200E" unicode="&#x200e;" horiz-adv-x="0" 
d="M-406 1493l223 -251l-229 -240h-202l164 161h-239v-1363h-166v1521h413l-166 172h202z" />
    <glyph glyph-name="uni200D" unicode="&#x200d;" horiz-adv-x="0" 
d="M-287 1404l-176 -180l176 -180l-123 -120l-92 94v-1218h-166v1214l-88 -90l-122 120l176 180l-176 180l122 119l173 -177l174 177z" />
    <glyph glyph-name="uni200C" unicode="&#x200c;" horiz-adv-x="0" 
d="M-666 1235h166v-1435h-166v1435z" />
    <glyph glyph-name=".null" horiz-adv-x="0" 
 />
    <glyph glyph-name="Euro" unicode="&#x20ac;" horiz-adv-x="1166" 
d="M843 187c72 0 141 11 203 32l29 -209c-77 -19 -162 -30 -249 -30c-321 0 -551 183 -561 546h-171v142h171v128h-171v142h172c20 355 247 538 570 538c83 0 160 -12 239 -31l-29 -210c-59 19 -131 33 -200 33c-188 0 -306 -101 -321 -330h352v-142h-353v-128h353v-142
h-353c8 -243 132 -339 319 -339z" />
    <glyph glyph-name="cent" unicode="&#xa2;" horiz-adv-x="1153" 
d="M592 180c116 0 204 75 210 180h235c-5 -183 -152 -334 -348 -371v-234h-200v234c-262 47 -388 270 -388 535v34c0 265 127 488 388 535v225h200v-224c209 -35 343 -190 348 -401h-235c-6 114 -81 209 -211 209c-194 0 -241 -173 -241 -344v-34c0 -174 46 -344 242 -344z
" />
    <glyph glyph-name="currency" unicode="&#xa4;" horiz-adv-x="1435" 
d="M1317 608c0 -130 -36 -250 -98 -349l139 -141l-142 -145l-132 134c-100 -80 -226 -127 -362 -127c-135 0 -260 46 -360 126l-129 -132l-141 144l136 138c-64 99 -101 220 -101 352c0 138 40 263 109 365l-144 147l141 144l142 -145c98 73 218 115 347 115
c131 0 251 -43 349 -116l145 147l142 -145l-147 -150c67 -101 106 -225 106 -362zM722 166c227 0 409 196 409 442s-182 440 -409 440s-410 -194 -410 -440s183 -442 410 -442z" />
    <glyph glyph-name="dollar" unicode="$" horiz-adv-x="1166" 
d="M1064 383c0 -234 -153 -374 -392 -400v-195h-159v195c-213 23 -413 150 -413 462h249c0 -203 123 -261 239 -261c148 0 228 78 228 197c0 112 -64 180 -237 241c-258 89 -423 201 -423 451c0 225 148 374 377 400v218h160v-220c227 -33 366 -197 366 -466h-249
c0 167 -77 267 -206 267c-138 0 -200 -81 -200 -198c0 -111 58 -172 241 -239c259 -94 419 -203 419 -452z" />
    <glyph glyph-name="uni20AA" unicode="&#x20aa;" horiz-adv-x="1831" 
d="M142 0v1191h1083v-535c0 -81 -15 -178 -48 -255l-203 -33l-12 10c19 77 29 170 29 259v348h-615v-985h-234zM577 0v796h234v-590h281c192 -1 333 112 333 308v677h234v-672c2 -323 -211 -519 -576 -519h-506z" />
    <glyph glyph-name="sterling" unicode="&#xa3;" horiz-adv-x="1207" 
d="M460 208h690l-1 -208h-1050v208h83c66 16 81 125 81 207l-6 181h-162v204h155l-8 239c0 276 189 437 454 437c278 0 437 -163 437 -405h-251c0 145 -92 197 -195 197c-105 0 -186 -80 -186 -229l9 -239h311v-204h-303l6 -172c0 -84 -19 -158 -64 -216z" />
    <glyph glyph-name="yen" unicode="&#xa5;" horiz-adv-x="1090" 
d="M1078 1456l-339 -714h232v-155h-301v-135h301v-154h-301v-298h-258v298h-308v154h308v135h-308v155h248l-340 714h278l257 -602l256 602h275z" />
    <glyph glyph-name="plus" unicode="+" horiz-adv-x="1139" 
d="M1065 803v-226h-378v-431h-240v431h-380v226h380v403h240v-403h378z" />
    <glyph glyph-name="minus" unicode="&#x2212;" horiz-adv-x="1153" 
d="M1008 618h-851v202h851v-202z" />
    <glyph glyph-name="multiply" unicode="&#xd7;" horiz-adv-x="1092" 
d="M1006 1008l-315 -321l315 -322l-151 -151l-314 320l-314 -320l-151 151l315 322l-315 321l151 151l314 -320l314 320z" />
    <glyph glyph-name="divide" unicode="&#xf7;" horiz-adv-x="1169" 
d="M577 1230c91 0 145 -58 145 -136c0 -76 -54 -134 -145 -134s-144 58 -144 134c0 78 53 136 144 136zM1081 581h-1014v215h1014v-215zM577 415c91 0 145 -58 145 -136c0 -77 -54 -134 -145 -134s-144 57 -144 134c0 78 53 136 144 136z" />
    <glyph glyph-name="equal" unicode="=" horiz-adv-x="1150" 
d="M1011 776h-867v206h867v-206zM1011 351h-867v206h867v-206z" />
    <glyph glyph-name="greater" unicode="&#x3e;" horiz-adv-x="1065" 
d="M128 1102l864 -370v-199l-864 -372v245l612 229l-612 224v243z" />
    <glyph glyph-name="less" unicode="&#x3c;" horiz-adv-x="1042" 
d="M903 1102v-247l-587 -225l587 -221v-248l-841 372v198z" />
    <glyph glyph-name="plusminus" unicode="&#xb1;" horiz-adv-x="1099" 
d="M669 905h341v-204h-341v-386h-220v386h-355v204h355v372h220v-372zM124 1v202h851v-202h-851z" />
    <glyph glyph-name="asciitilde" unicode="~" horiz-adv-x="1357" 
d="M1241 788c0 -233 -139 -402 -332 -402c-111 0 -188 44 -287 135c-60 57 -109 89 -168 89c-88 0 -142 -76 -142 -186h-196c0 236 137 393 330 393c111 0 195 -47 289 -134c62 -59 109 -89 166 -89c89 0 149 82 149 193z" />
    <glyph glyph-name="logicalnot" unicode="&#xac;" horiz-adv-x="1133" 
d="M127 805h835v-431h-200v260h-635v171z" />
    <glyph glyph-name="percent" unicode="%" horiz-adv-x="1505" 
d="M99 1176c0 165 113 301 309 301c201 0 310 -136 310 -301v-77c0 -163 -109 -299 -308 -299c-198 0 -311 136 -311 299v77zM272 1099c0 -78 44 -151 138 -151c92 0 136 73 136 151v77c0 80 -45 153 -138 153c-92 0 -136 -73 -136 -153v-77zM461 109l-128 73l711 1138
l128 -73zM799 357c0 164 113 300 309 300c200 0 310 -136 310 -300v-78c0 -164 -110 -300 -308 -300s-311 136 -311 300v78zM971 279c0 -78 50 -151 139 -151c99 0 136 72 136 151v78c0 79 -45 152 -138 152c-92 0 -137 -73 -137 -152v-78z" />
    <glyph glyph-name="at" unicode="@" horiz-adv-x="1833" 
d="M965 1424c515 0 798 -357 775 -903c-10 -261 -126 -542 -426 -542c-118 0 -203 56 -242 153c-68 -100 -161 -151 -261 -151c-196 0 -304 176 -279 443c34 347 230 566 450 566c151 0 222 -50 301 -108l-52 -565c-15 -160 52 -193 113 -193c142 0 228 173 236 393
c22 465 -174 755 -619 755c-413 0 -665 -334 -686 -802c-22 -491 206 -768 620 -768c117 0 248 29 331 72l39 -138c-94 -60 -249 -89 -374 -89c-519 0 -816 339 -793 923c24 546 354 954 867 954zM872 148c56 0 132 45 179 178l44 489c-28 11 -59 18 -95 18
c-148 0 -244 -142 -269 -409c-17 -180 35 -276 141 -276z" />
    <glyph glyph-name="ampersand" unicode="&#x26;" horiz-adv-x="1314" 
d="M1300 0h-288l-81 96c-106 -79 -236 -116 -371 -116c-294 0 -476 172 -476 413c0 172 111 273 271 386c-91 116 -150 214 -150 326c0 231 153 371 386 371c222 0 363 -150 363 -326c0 -139 -79 -235 -196 -320l-99 -71l277 -328c38 75 61 165 61 266h216
c0 -172 -38 -324 -127 -444zM590 1276c-101 0 -152 -76 -152 -166c0 -65 40 -131 100 -207l87 58c83 55 114 101 114 179c0 68 -54 136 -149 136zM568 180c79 0 157 28 225 78l-314 370l-29 -21c-104 -81 -116 -157 -116 -204c0 -126 83 -223 234 -223z" />
    <glyph glyph-name="paragraph" unicode="&#xb6;" horiz-adv-x="1006" 
d="M645 0v520h-83c-318 0 -492 198 -492 468c0 268 174 468 492 468h294v-1456h-211z" />
    <glyph glyph-name="section" unicode="&#xa7;" horiz-adv-x="1275" 
d="M997 186c88 -66 135 -154 135 -287c0 -237 -200 -371 -506 -371c-265 0 -536 102 -536 424l249 1c0 -174 150 -224 287 -224c166 0 257 70 257 169c0 102 -73 148 -317 219c-295 79 -472 179 -472 425c0 122 62 216 169 273c-87 66 -134 155 -134 286
c0 227 199 376 507 376c316 0 509 -153 509 -429h-249c0 127 -90 229 -260 229c-179 0 -258 -79 -258 -174c0 -112 60 -151 314 -220c303 -80 475 -179 475 -424c0 -124 -62 -217 -170 -273zM343 559c0 -116 59 -158 314 -231c56 -15 107 -31 154 -48c70 31 109 89 109 162
c0 105 -74 156 -318 230c-56 16 -108 31 -155 49c-71 -29 -104 -88 -104 -162z" />
    <glyph glyph-name="copyright" unicode="&#xa9;" horiz-adv-x="1605" 
d="M797 1476c391 0 710 -324 710 -747s-319 -750 -710 -750c-392 0 -710 327 -710 750s318 747 710 747zM797 104c324 0 587 272 587 625s-263 622 -587 622c-325 0 -588 -269 -588 -622s263 -625 588 -625zM1118 596c0 -210 -129 -314 -335 -314c-215 0 -349 157 -349 387
v119c0 229 134 387 349 387c206 0 336 -104 336 -313h-156c0 128 -62 178 -180 178c-128 0 -194 -104 -194 -251v-120c0 -149 66 -252 194 -252c118 0 179 49 179 179h156z" />
    <glyph glyph-name="registered" unicode="&#xae;" horiz-adv-x="1605" 
d="M797 1476c391 0 710 -324 710 -747s-319 -750 -710 -750c-392 0 -710 327 -710 750s318 747 710 747zM797 104c324 0 587 272 587 625s-263 622 -587 622c-325 0 -588 -269 -588 -622s263 -625 588 -625zM1105 515v-56c0 -50 4 -97 17 -127v-16h-155
c-13 34 -13 115 -13 144v54c0 94 -39 139 -143 139h-158v-337h-151v850h281c198 0 325 -87 325 -260c0 -79 -41 -138 -118 -179c85 -40 115 -117 115 -212zM796 787c86 1 162 40 162 116c0 97 -45 130 -175 130h-130v-246h143z" />
    <glyph glyph-name="degree" unicode="&#xb0;" horiz-adv-x="781" 
d="M393 1477c143 0 261 -123 261 -270c0 -148 -118 -266 -261 -266c-145 0 -266 118 -266 266c0 147 121 270 266 270zM393 1083c68 0 121 53 121 124c0 73 -53 128 -121 128s-126 -55 -126 -128c0 -71 58 -124 126 -124z" />
    <glyph glyph-name="bar" unicode="|" horiz-adv-x="515" 
d="M343 -270h-169v1726h169v-1726z" />
    <glyph glyph-name="brokenbar" unicode="&#xa6;" horiz-adv-x="510" 
d="M369 698h-233v758h233v-758zM136 -270v795h233v-795h-233z" />
    <glyph glyph-name="asciicircum" unicode="^" horiz-adv-x="878" 
d="M826 729h-209l-177 461l-178 -461h-210l299 727h177z" />
    <glyph glyph-name="ampersand.smcp" horiz-adv-x="1290" 
d="M1212 0h-274l-72 74c-98 -59 -219 -92 -356 -92c-257 0 -418 132 -418 306c0 135 75 213 198 296l48 33c-92 95 -155 169 -155 288c0 153 130 276 340 276s344 -122 344 -285c0 -105 -68 -193 -160 -256l-70 -47l229 -236c37 63 57 140 57 227h217
c0 -155 -49 -280 -128 -378zM407 883c0 -53 43 -98 98 -154l49 33c67 45 87 83 87 125c0 55 -44 100 -120 100c-75 0 -114 -52 -114 -104zM522 183c76 0 142 15 198 41l-248 256l-56 -38c-63 -43 -76 -89 -76 -125c0 -81 63 -134 182 -134z" />
    <glyph glyph-name="dollar.smcp" horiz-adv-x="1080" 
d="M590 689c277 -65 419 -171 419 -376c0 -184 -143 -302 -369 -325v-225h-160v225c-217 22 -418 140 -418 374h250c0 -135 98 -190 253 -190c142 0 202 64 202 135c0 83 -50 131 -238 176c-277 67 -427 161 -427 364c0 180 152 310 378 331v217h160v-220
c228 -30 370 -167 370 -354h-249c0 95 -72 171 -217 171c-139 0 -201 -66 -201 -139c0 -76 67 -119 247 -164z" />
    <glyph glyph-name="Euro.smcp" horiz-adv-x="1017" 
d="M719 184c78 0 132 11 200 27l27 -196c-75 -20 -143 -31 -227 -31c-282 0 -463 144 -497 402h-151v150h145v89h-145v150h152c35 261 214 408 494 408c85 0 148 -12 229 -33l-22 -195c-70 20 -128 28 -207 28c-143 0 -221 -71 -244 -208h377v-150h-385v-89h385v-150h-378
c23 -134 103 -202 247 -202z" />
    <glyph glyph-name="sterling.smcp" horiz-adv-x="1132" 
d="M392 201h663v-201h-928v201h10c71 19 85 169 81 280v4h-160v149h155l-3 103c-9 281 153 444 403 444c275 0 413 -162 413 -402h-249c0 148 -73 201 -163 201c-101 0 -161 -85 -155 -243l4 -103h382v-149h-377c5 -110 -21 -209 -76 -284z" />
    <glyph glyph-name="yen.smcp" horiz-adv-x="933" 
d="M923 1165l-258 -579h189v-150h-255l-12 -26v-44h267v-149h-267v-217h-249v217h-267v149h267v59l-5 11h-262v150h196l-258 579h263l195 -504l194 504h262z" />
    <glyph glyph-name="uniFB29" unicode="&#xfb29;" horiz-adv-x="1116" 
d="M439 1206h229v-420h388v-212h-998v212h381v420z" />
    <glyph glyph-name="gravecomb" unicode="&#x300;" horiz-adv-x="0" 
d="M-407 1233h-206l-271 303h281z" />
    <glyph glyph-name="acutecomb" unicode="&#x301;" horiz-adv-x="0" 
d="M-480 1536h282l-277 -303h-200z" />
    <glyph glyph-name="tildecomb" unicode="&#x303;" horiz-adv-x="0" 
d="M-176 1515c0 -149 -97 -258 -224 -258c-131 0 -164 89 -271 89c-50 0 -90 -41 -90 -102l-151 8c0 146 95 261 223 261c108 0 168 -89 270 -89c51 0 91 41 91 103z" />
    <glyph glyph-name="acute" unicode="&#xb4;" horiz-adv-x="669" 
d="M307 1536h281l-276 -303h-201z" />
    <glyph glyph-name="cedilla" unicode="&#xb8;" horiz-adv-x="531" 
d="M322 4l-11 -55c74 -13 150 -58 150 -173c0 -135 -113 -226 -330 -226l-7 142c77 0 134 25 134 88c0 59 -45 76 -150 84l32 140h182z" />
    <glyph glyph-name="circumflex" unicode="&#x2c6;" horiz-adv-x="1001" 
d="M842 1259v-11h-199l-151 155l-150 -155h-196v13l273 276h146z" />
    <glyph glyph-name="dieresis" unicode="&#xa8;" horiz-adv-x="909" 
d="M222 1486c78 0 128 -53 128 -120c0 -66 -50 -118 -128 -118c-79 0 -128 52 -128 118c0 67 49 120 128 120zM683 1485c78 0 128 -53 128 -120s-50 -119 -128 -119c-79 0 -128 52 -128 119s49 120 128 120z" />
    <glyph glyph-name="grave" unicode="`" horiz-adv-x="662" 
d="M528 1233h-207l-271 303h282z" />
    <glyph glyph-name="macron" unicode="&#xaf;" horiz-adv-x="993" 
d="M844 1292h-687v159h687v-159z" />
    <glyph glyph-name="ring" unicode="&#x2da;" horiz-adv-x="689" 
d="M342 1572c127 0 222 -94 222 -208c0 -115 -95 -204 -222 -204s-221 89 -221 204c0 114 94 208 221 208zM342 1254c67 0 112 51 112 110c0 61 -45 113 -112 113c-66 0 -111 -52 -111 -113c0 -58 45 -110 111 -110z" />
    <glyph glyph-name="tilde" unicode="&#x2dc;" horiz-adv-x="985" 
d="M858 1515c0 -149 -97 -258 -224 -258c-131 0 -164 89 -271 89c-50 0 -90 -41 -90 -102l-151 8c0 146 95 261 223 261c108 0 168 -89 270 -89c51 0 91 41 91 103z" />
    <glyph glyph-name="uni05B0" unicode="&#x5b0;" horiz-adv-x="0" 
d="M617 -329c-52 0 -91 35 -91 82c0 48 39 83 91 83s90 -35 90 -83c0 -47 -38 -82 -90 -82zM617 -582c-52 0 -91 35 -91 82c0 48 39 83 91 83s90 -35 90 -83c0 -47 -38 -82 -90 -82z" />
    <glyph glyph-name="uni05B1" unicode="&#x5b1;" horiz-adv-x="0" 
d="M362 -329c-51 0 -91 35 -91 82c0 48 39 83 91 83s90 -35 90 -83c0 -47 -38 -82 -90 -82zM617 -329c-52 0 -91 35 -91 82c0 48 39 83 91 83s90 -35 90 -83c0 -47 -38 -82 -90 -82zM874 -329c-52 0 -91 35 -91 82c0 48 39 83 91 83s90 -35 90 -83c0 -47 -38 -82 -90 -82z
M490 -545c-52 0 -91 34 -91 82s39 83 91 83s90 -35 90 -83s-38 -82 -90 -82zM874 -582c-52 0 -91 35 -91 82c0 48 39 83 91 83s90 -35 90 -83c0 -47 -38 -82 -90 -82z" />
    <glyph glyph-name="uni05B2" unicode="&#x5b2;" horiz-adv-x="0" 
d="M868 -329c-52 0 -91 35 -91 82c0 48 39 83 91 83s90 -35 90 -83c0 -47 -38 -82 -90 -82zM278 -303v115h421v-115h-421zM868 -582c-52 0 -91 35 -91 82c0 48 39 83 91 83s90 -35 90 -83c0 -47 -38 -82 -90 -82z" />
    <glyph glyph-name="uni05B3" unicode="&#x5b3;" horiz-adv-x="0" 
d="M868 -329c-52 0 -91 35 -91 82c0 48 39 83 91 83s90 -35 90 -83c0 -47 -38 -82 -90 -82zM490 -572c-51 0 -90 37 -90 82c0 53 45 61 53 187h-176v115h423v-115h-174c9 -126 54 -134 54 -187c0 -47 -38 -82 -90 -82zM868 -582c-52 0 -91 35 -91 82c0 48 39 83 91 83
s90 -35 90 -83c0 -47 -38 -82 -90 -82z" />
    <glyph glyph-name="uni05B4" unicode="&#x5b4;" horiz-adv-x="0" 
d="M617 -329c-52 0 -91 37 -91 82c0 48 39 83 91 83s90 -35 90 -83c0 -47 -38 -82 -90 -82z" />
    <glyph glyph-name="uni05B5" unicode="&#x5b5;" horiz-adv-x="0" 
d="M490 -329c-52 0 -91 37 -91 82c0 48 39 83 91 83s90 -35 90 -83c0 -47 -38 -82 -90 -82zM743 -329c-52 0 -91 37 -91 82c0 48 39 83 91 83s90 -35 90 -83c0 -47 -38 -82 -90 -82z" />
    <glyph glyph-name="uni05B6" unicode="&#x5b6;" horiz-adv-x="0" 
d="M490 -329c-52 0 -91 37 -91 82c0 48 39 83 91 83s90 -35 90 -83c0 -47 -38 -82 -90 -82zM743 -329c-52 0 -91 37 -91 82c0 48 39 83 91 83s90 -35 90 -83c0 -47 -38 -82 -90 -82zM617 -545c-52 0 -91 34 -91 82s39 83 91 83s90 -35 90 -83s-38 -82 -90 -82z" />
    <glyph glyph-name="uni05B7" unicode="&#x5b7;" horiz-adv-x="0" 
d="M395 -303v115h443v-115h-443z" />
    <glyph glyph-name="uni05B8" unicode="&#x5b8;" horiz-adv-x="0" 
d="M618 -563c-52 0 -91 37 -91 82c0 53 46 61 54 178h-165v115h402v-115h-165c10 -117 55 -125 55 -178c0 -47 -38 -82 -90 -82z" />
    <glyph glyph-name="uni05B9" unicode="&#x5b9;" horiz-adv-x="0" 
d="M283 1342c-52 0 -91 37 -91 82c0 48 39 83 91 83s91 -35 91 -83s-39 -82 -91 -82z" />
    <glyph glyph-name="uni05BA" unicode="&#x5ba;" horiz-adv-x="0" 
d="M283 1342c-52 0 -91 37 -91 82c0 48 39 83 91 83s91 -35 91 -83s-39 -82 -91 -82z" />
    <glyph glyph-name="uni05BB" unicode="&#x5bb;" horiz-adv-x="0" 
d="M617 -329c-51 0 -91 37 -91 82c0 48 39 83 91 83s90 -35 90 -83c0 -47 -38 -82 -90 -82zM751 -538c-52 0 -91 36 -91 81c0 48 39 83 91 83c51 0 90 -37 90 -83c0 -47 -39 -81 -90 -81zM885 -748c-52 0 -91 37 -91 81c0 48 39 84 91 84s90 -36 90 -84
c0 -47 -38 -81 -90 -81z" />
    <glyph glyph-name="uni05BC" unicode="&#x5bc;" horiz-adv-x="0" 
d="M326 518c-52 0 -91 37 -91 83c0 47 39 82 91 82s91 -35 91 -82c0 -48 -39 -83 -91 -83z" />
    <glyph glyph-name="uni05BF" unicode="&#x5bf;" horiz-adv-x="0" 
d="M230 1362v135h537v-135h-537z" />
    <glyph glyph-name="uni05C1" unicode="&#x5c1;" horiz-adv-x="0" 
d="M1378 1342c-51 0 -91 37 -91 82c0 48 40 83 91 83c53 0 91 -35 91 -83s-38 -82 -91 -82z" />
    <glyph glyph-name="uni05C2" unicode="&#x5c2;" horiz-adv-x="0" 
d="M263 1342c-51 0 -91 37 -91 82c0 48 40 83 91 83c52 0 91 -35 91 -83s-39 -82 -91 -82z" />
    <glyph glyph-name="longst" unicode="&#xfb05;" horiz-adv-x="1301" 
d="M1155 186c33 0 67 6 85 10v-192c-39 -13 -91 -24 -162 -24c-165 0 -284 82 -284 306v612h-176v184h176v244c-33 16 -109 31 -176 31c-105 0 -161 -64 -161 -173v-1184h-249v898h-165v184h165v102c0 241 140 373 374 373c157 0 330 -49 461 -105v-370h190v-184h-190v-595
c0 -97 45 -117 112 -117z" />
    <glyph glyph-name="st" unicode="&#xfb06;" horiz-adv-x="1722" 
d="M1585 186c32 0 66 6 84 10v-192c-39 -13 -91 -24 -161 -24c-166 0 -285 97 -285 340v578h-169v184h169v89c0 130 -68 199 -182 199c-115 0 -165 -71 -165 -152c0 -157 89 -256 89 -461h-250c0 84 -63 160 -187 160c-119 0 -177 -62 -177 -133c0 -70 49 -108 220 -144
c249 -52 400 -135 400 -332c0 -192 -173 -328 -440 -328c-297 0 -458 184 -458 362h241c6 -130 114 -177 221 -177c125 0 192 54 192 130c0 69 -37 117 -230 157c-230 48 -388 138 -388 321c0 177 161 329 419 329c62 0 118 -8 168 -22c-27 63 -45 123 -45 186
c0 162 145 294 394 294c335 0 427 -204 427 -388v-90h190v-184h-190v-577c0 -105 45 -135 113 -135z" />
    <glyph glyph-name="crossbar" horiz-adv-x="957" 
d="M817 647h-673v173h673v-173z" />
    </font>
</defs>
</svg>
