<?xml version="1.0" standalone="no"?>
<!DOCTYPE svg PUBLIC "-//W3C//DTD SVG 1.1//EN" "http://www.w3.org/Graphics/SVG/1.1/DTD/svg11.dtd" >
<svg xmlns="http://www.w3.org/2000/svg" xmlns:xlink="http://www.w3.org/1999/xlink" version="1.1">
<metadata>
Created by FontForge 20160405 at Mon Mar 25 08:58:20 2019
 By www-data
Copyright 2014 The Heebo Project Authors.
</metadata>
<defs>
<font id="Heebo-Regular" horiz-adv-x="752" >
  <font-face 
    font-family="Heebo"
    font-weight="400"
    font-stretch="normal"
    units-per-em="2048"
    panose-1="0 0 5 0 0 0 0 0 0 0"
    ascent="1638"
    descent="-410"
    x-height="1082"
    cap-height="1456"
    bbox="-886 -687 1881 2146"
    underline-thickness="100"
    underline-position="-150"
    stemh="155"
    stemv="196"
    unicode-range="U+0020-FB4F"
  />
<missing-glyph horiz-adv-x="1351" 
d="M1107 2146v-2701h-856v2701h856zM899 1965h-445v-89h175v-100h-178v-89h448v89h-178v100h178v89zM721 1617h-270v-281h448v92h-178v189zM629 1525v-97h-89v97h89zM899 1263h-448v-89h178v-100h-178v-89h270v189h178v89zM899 1101h-89v-179h-359v-91h448v270zM899 771
h-270v-151h92v62h89v-127h-270v216h-89v-305h448v305zM899 304h-448v-305h448v305zM810 215v-127h-270v127h270zM899 -63h-448v-90h189l-189 -126v-90h448v90h-275l189 126h86v90z" />
    <glyph glyph-name=".notdef" horiz-adv-x="1351" 
d="M1107 2146v-2701h-856v2701h856zM899 1965h-445v-89h175v-100h-178v-89h448v89h-178v100h178v89zM721 1617h-270v-281h448v92h-178v189zM629 1525v-97h-89v97h89zM899 1263h-448v-89h178v-100h-178v-89h270v189h178v89zM899 1101h-89v-179h-359v-91h448v270zM899 771
h-270v-151h92v62h89v-127h-270v216h-89v-305h448v305zM899 304h-448v-305h448v305zM810 215v-127h-270v127h270zM899 -63h-448v-90h189l-189 -126v-90h448v90h-275l189 126h86v90z" />
    <glyph glyph-name="A" unicode="A" horiz-adv-x="1338" 
d="M1112 0l-139 381h-607l-138 -381h-200l556 1456h170l557 -1456h-199zM423 538h493l-247 680z" />
    <glyph glyph-name="Aacute" unicode="&#xc1;" horiz-adv-x="1338" 
d="M999 1847l-269 -293h-150l194 293h225zM1112 0l-139 381h-607l-138 -381h-200l556 1456h170l557 -1456h-199zM423 538h493l-247 680z" />
    <glyph glyph-name="Acircumflex" unicode="&#xc2;" horiz-adv-x="1338" 
d="M673 1734l-149 -170h-153v11l246 272h112l248 -273v-10h-154zM1112 0l-139 381h-607l-138 -381h-200l556 1456h170l557 -1456h-199zM423 538h493l-247 680z" />
    <glyph glyph-name="Adieresis" unicode="&#xc4;" horiz-adv-x="1338" 
d="M460 1579c-72 0 -110 46 -110 104c0 59 38 106 110 106s110 -47 110 -106c0 -58 -38 -104 -110 -104zM890 1577c-72 0 -109 46 -109 104c0 59 37 106 109 106s111 -47 111 -106c0 -58 -39 -104 -111 -104zM1112 0l-139 381h-607l-138 -381h-200l556 1456h170l557 -1456
h-199zM423 538h493l-247 680z" />
    <glyph glyph-name="Agrave" unicode="&#xc0;" horiz-adv-x="1338" 
d="M762 1554h-160l-259 293h226zM1112 0l-139 381h-607l-138 -381h-200l556 1456h170l557 -1456h-199zM423 538h493l-247 680z" />
    <glyph glyph-name="Aring" unicode="&#xc5;" horiz-adv-x="1338" 
d="M673 1527c-123 0 -216 87 -216 203s93 208 216 208c121 0 215 -92 215 -208s-94 -203 -215 -203zM673 1849c-68 0 -116 -56 -116 -119c0 -59 48 -115 116 -115s116 55 116 115c0 63 -48 119 -116 119zM1112 0l-139 381h-607l-138 -381h-200l556 1456h170l557 -1456h-199z
M423 538h493l-247 680z" />
    <glyph glyph-name="Atilde" unicode="&#xc3;" horiz-adv-x="1338" 
d="M544 1669c-56 0 -99 -49 -99 -112l-125 7c0 145 93 246 215 246c113 0 162 -96 268 -96c56 0 100 49 100 113l125 -12c0 -146 -95 -241 -216 -241c-136 0 -157 95 -268 95zM1112 0l-139 381h-607l-138 -381h-200l556 1456h170l557 -1456h-199zM423 538h493l-247 680z" />
    <glyph glyph-name="AE" unicode="&#xc6;" horiz-adv-x="1915" 
d="M1177 150h704v-150h-885l-15 354h-563l-205 -354h-229l881 1456h954v-150h-691l20 -473h590v-150h-584zM518 527h456l-31 735z" />
    <glyph glyph-name="B" unicode="B" horiz-adv-x="1276" 
d="M905 766c164 -43 255 -182 255 -346c0 -273 -190 -420 -481 -420h-510v1456h478c297 0 475 -117 475 -388c0 -135 -83 -245 -217 -302zM647 1299h-284v-464h289c165 0 276 87 276 235c0 160 -92 229 -281 229zM679 156c182 0 287 102 287 262c0 162 -83 264 -278 264
h-325v-526h316z" />
    <glyph glyph-name="C" unicode="C" horiz-adv-x="1333" 
d="M1241 462c-31 -275 -202 -482 -553 -482c-342 0 -569 267 -569 674v147c0 407 226 675 587 675c330 0 505 -199 535 -487h-194c-29 204 -117 330 -341 330c-258 0 -392 -207 -392 -516v-149c0 -286 116 -518 374 -518c246 0 326 121 359 326h194z" />
    <glyph glyph-name="Ccedilla" unicode="&#xc7;" horiz-adv-x="1333" 
d="M688 136c246 0 326 121 359 326h194c-29 -258 -182 -456 -491 -480l-10 -45c77 -13 153 -57 153 -173c0 -125 -105 -209 -304 -209l-7 106c92 0 166 29 166 99c0 68 -49 86 -161 95l30 129c-302 35 -498 292 -498 670v147c0 407 226 675 587 675c330 0 505 -199 535 -487
h-194c-29 204 -117 330 -341 330c-258 0 -392 -207 -392 -516v-149c0 -286 116 -518 374 -518z" />
    <glyph glyph-name="D" unicode="D" horiz-adv-x="1344" 
d="M580 1456c383 0 643 -264 643 -684v-88c0 -421 -256 -684 -660 -684h-394v1456h411zM1031 684v90c0 333 -163 525 -451 525h-217v-1143h200c310 0 468 208 468 528z" />
    <glyph glyph-name="Eth" unicode="&#xd0;" horiz-adv-x="1344" 
d="M580 1456c383 0 643 -264 643 -684v-88c0 -421 -256 -684 -660 -684h-394v666h-163v150h163v640h411zM1031 684v90c0 333 -163 525 -451 525h-217v-483h281v-150h-281v-510h200c310 0 468 208 468 528z" />
    <glyph glyph-name="E" unicode="E" horiz-adv-x="1164" 
d="M363 156h731v-156h-925v1456h915v-157h-721v-469h629v-156h-629v-518z" />
    <glyph glyph-name="Eacute" unicode="&#xc9;" horiz-adv-x="1164" 
d="M945 1858l-269 -293h-150l194 293h225zM363 156h731v-156h-925v1456h915v-157h-721v-469h629v-156h-629v-518z" />
    <glyph glyph-name="Ecircumflex" unicode="&#xca;" horiz-adv-x="1164" 
d="M619 1745l-149 -170h-153v11l246 272h112l248 -273v-10h-154zM363 156h731v-156h-925v1456h915v-157h-721v-469h629v-156h-629v-518z" />
    <glyph glyph-name="Edieresis" unicode="&#xcb;" horiz-adv-x="1164" 
d="M406 1590c-72 0 -110 46 -110 104c0 59 38 106 110 106s110 -47 110 -106c0 -58 -38 -104 -110 -104zM836 1588c-72 0 -109 46 -109 104c0 59 37 106 109 106s111 -47 111 -106c0 -58 -39 -104 -111 -104zM363 156h731v-156h-925v1456h915v-157h-721v-469h629v-156h-629
v-518z" />
    <glyph glyph-name="Egrave" unicode="&#xc8;" horiz-adv-x="1164" 
d="M708 1565h-160l-259 293h226zM363 156h731v-156h-925v1456h915v-157h-721v-469h629v-156h-629v-518z" />
    <glyph glyph-name="F" unicode="F" horiz-adv-x="1132" 
d="M1071 1299h-708v-499h609v-156h-609v-644h-194v1456h902v-157z" />
    <glyph glyph-name="G" unicode="G" horiz-adv-x="1395" 
d="M1245 191c-55 -79 -188 -211 -515 -211c-355 0 -608 256 -608 691v115c0 434 209 690 585 690c334 0 501 -188 538 -446h-194c-27 157 -121 289 -343 289c-270 0 -391 -204 -391 -531v-117c0 -336 166 -535 414 -535c206 0 282 62 321 106v328h-336v155h529v-534z" />
    <glyph glyph-name="H" unicode="H" horiz-adv-x="1461" 
d="M1095 1456h194v-1456h-194v674h-732v-674h-194v1456h194v-626h732v626z" />
    <glyph glyph-name="I" unicode="I" horiz-adv-x="558" 
d="M377 0h-194v1456h194v-1456z" />
    <glyph glyph-name="Iacute" unicode="&#xcd;" horiz-adv-x="558" 
d="M380 1858h225l-269 -293h-150zM377 0h-194v1456h194v-1456z" />
    <glyph glyph-name="Icircumflex" unicode="&#xce;" horiz-adv-x="558" 
d="M583 1585v-10h-154l-150 170l-149 -170h-153v11l246 272h112zM377 0h-194v1456h194v-1456z" />
    <glyph glyph-name="Idieresis" unicode="&#xcf;" horiz-adv-x="558" 
d="M66 1800c72 0 110 -47 110 -106c0 -58 -38 -104 -110 -104s-110 46 -110 104c0 59 38 106 110 106zM496 1798c72 0 111 -47 111 -106c0 -58 -39 -104 -111 -104s-109 46 -109 104c0 59 37 106 109 106zM377 0h-194v1456h194v-1456z" />
    <glyph glyph-name="Igrave" unicode="&#xcc;" horiz-adv-x="558" 
d="M368 1565h-160l-259 293h226zM377 0h-194v1456h194v-1456z" />
    <glyph glyph-name="J" unicode="J" horiz-adv-x="1130" 
d="M779 1456h194v-1030c0 -289 -192 -446 -460 -446s-460 136 -460 423h194c0 -184 110 -267 266 -267c152 0 266 100 266 290v1030z" />
    <glyph glyph-name="K" unicode="K" horiz-adv-x="1285" 
d="M1054 0l-513 677l-178 -184v-493h-194v1456h194v-718l645 718h234l-572 -643l616 -813h-232z" />
    <glyph glyph-name="L" unicode="L" horiz-adv-x="1103" 
d="M363 156h690v-156h-884v1456h194v-1300z" />
    <glyph glyph-name="M" unicode="M" horiz-adv-x="1789" 
d="M1619 1456v-1456h-193v569l18 607l-477 -1176h-147l-476 1176l18 -607v-569h-193v1456h250l475 -1190l475 1190h250z" />
    <glyph glyph-name="N" unicode="N" horiz-adv-x="1461" 
d="M1289 0h-195l-731 1126v-1126h-194v1456h194l734 -1129v1129h192v-1456z" />
    <glyph glyph-name="Ntilde" unicode="&#xd1;" horiz-adv-x="1461" 
d="M1081 1815c0 -146 -95 -241 -216 -241c-136 0 -157 95 -268 95c-56 0 -99 -49 -99 -112l-125 7c0 145 93 246 215 246c113 0 162 -96 268 -96c56 0 100 49 100 113zM1289 0h-195l-731 1126v-1126h-194v1456h194l734 -1129v1129h192v-1456z" />
    <glyph glyph-name="O" unicode="O" horiz-adv-x="1410" 
d="M1290 681c0 -436 -229 -701 -584 -701c-345 0 -588 265 -588 701v93c0 436 241 702 586 702c355 0 586 -266 586 -702v-93zM1098 776c0 347 -146 537 -394 537c-238 0 -393 -190 -393 -537v-95c0 -349 157 -539 395 -539c250 0 392 190 392 539v95z" />
    <glyph glyph-name="Oacute" unicode="&#xd3;" horiz-adv-x="1410" 
d="M808 1849h225l-269 -293h-150zM1290 681c0 -436 -229 -701 -584 -701c-345 0 -588 265 -588 701v93c0 436 241 702 586 702c355 0 586 -266 586 -702v-93zM1098 776c0 347 -146 537 -394 537c-238 0 -393 -190 -393 -537v-95c0 -349 157 -539 395 -539
c250 0 392 190 392 539v95z" />
    <glyph glyph-name="Ocircumflex" unicode="&#xd4;" horiz-adv-x="1410" 
d="M1011 1576v-10h-154l-150 170l-149 -170h-153v11l246 272h112zM1290 681c0 -436 -229 -701 -584 -701c-345 0 -588 265 -588 701v93c0 436 241 702 586 702c355 0 586 -266 586 -702v-93zM1098 776c0 347 -146 537 -394 537c-238 0 -393 -190 -393 -537v-95
c0 -349 157 -539 395 -539c250 0 392 190 392 539v95z" />
    <glyph glyph-name="Odieresis" unicode="&#xd6;" horiz-adv-x="1410" 
d="M494 1791c72 0 110 -47 110 -106c0 -58 -38 -104 -110 -104s-110 46 -110 104c0 59 38 106 110 106zM924 1789c72 0 111 -47 111 -106c0 -58 -39 -104 -111 -104s-109 46 -109 104c0 59 37 106 109 106zM1290 681c0 -436 -229 -701 -584 -701c-345 0 -588 265 -588 701
v93c0 436 241 702 586 702c355 0 586 -266 586 -702v-93zM1098 776c0 347 -146 537 -394 537c-238 0 -393 -190 -393 -537v-95c0 -349 157 -539 395 -539c250 0 392 190 392 539v95z" />
    <glyph glyph-name="Ograve" unicode="&#xd2;" horiz-adv-x="1410" 
d="M796 1556h-160l-259 293h226zM1290 681c0 -436 -229 -701 -584 -701c-345 0 -588 265 -588 701v93c0 436 241 702 586 702c355 0 586 -266 586 -702v-93zM1098 776c0 347 -146 537 -394 537c-238 0 -393 -190 -393 -537v-95c0 -349 157 -539 395 -539
c250 0 392 190 392 539v95z" />
    <glyph glyph-name="Oslash" unicode="&#xd8;" horiz-adv-x="1410" 
d="M1310 1516l-158 -255c88 -119 138 -285 138 -487v-93c0 -436 -229 -701 -584 -701c-113 0 -215 28 -301 82l-97 -155h-144l145 232c-120 121 -191 306 -191 542v93c0 436 241 702 586 702c143 0 267 -43 363 -124l102 164h141zM311 681c0 -164 35 -293 97 -384l564 904
c-66 74 -157 112 -268 112c-238 0 -393 -190 -393 -537v-95zM1098 776c0 125 -19 229 -55 312l-548 -881c59 -43 130 -65 211 -65c250 0 392 190 392 539v95z" />
    <glyph glyph-name="Otilde" unicode="&#xd5;" horiz-adv-x="1410" 
d="M1062 1817c0 -146 -95 -241 -216 -241c-136 0 -157 95 -268 95c-56 0 -99 -49 -99 -112l-125 7c0 145 93 246 215 246c113 0 162 -96 268 -96c56 0 100 49 100 113zM1290 681c0 -436 -229 -701 -584 -701c-345 0 -588 265 -588 701v93c0 436 241 702 586 702
c355 0 586 -266 586 -702v-93zM1098 776c0 347 -146 537 -394 537c-238 0 -393 -190 -393 -537v-95c0 -349 157 -539 395 -539c250 0 392 190 392 539v95z" />
    <glyph glyph-name="OE" unicode="&#x152;" horiz-adv-x="1954" 
d="M1070 156h731v-156h-847c-90 -10 -190 -21 -292 -21c-331 0 -557 244 -557 597v304c0 353 224 597 555 597c102 0 204 -10 294 -21h837v-157h-721v-469h629v-156h-629v-518zM292 576c0 -291 144 -447 370 -447c74 0 147 6 214 15v1167c-68 9 -141 15 -216 15
c-226 0 -368 -154 -368 -444v-306z" />
    <glyph glyph-name="P" unicode="P" horiz-adv-x="1293" 
d="M707 1456c330 0 511 -185 511 -444c0 -281 -181 -441 -511 -441h-344v-571h-194v1456h538zM707 727c225 0 317 118 317 283c0 150 -92 289 -317 289h-344v-572h344z" />
    <glyph glyph-name="Thorn" unicode="&#xde;" horiz-adv-x="1210" 
d="M630 1163c315 0 488 -180 488 -425c0 -244 -173 -424 -488 -424h-277v-314h-187v1456h187v-293h277zM630 464c214 0 301 136 301 272c0 140 -87 277 -301 277h-277v-549h277z" />
    <glyph glyph-name="Q" unicode="Q" horiz-adv-x="1410" 
d="M1287 -127l-131 -120l-308 245c-47 -12 -98 -18 -151 -18c-345 0 -588 265 -588 701v93c0 436 241 702 586 702c356 0 587 -266 587 -702v-93c0 -279 -94 -488 -255 -603zM303 681c0 -349 157 -539 394 -539c250 0 392 190 392 539v95c0 347 -145 537 -394 537
c-237 0 -392 -190 -392 -537v-95z" />
    <glyph glyph-name="R" unicode="R" horiz-adv-x="1261" 
d="M884 630l342 -618v-12h-208l-316 590h-339v-590h-194v1456h482c328 0 511 -153 511 -437c0 -180 -104 -322 -278 -389zM363 746h293c207 0 311 122 311 273c0 169 -95 280 -316 280h-288v-553z" />
    <glyph glyph-name="S" unicode="S" horiz-adv-x="1216" 
d="M598 651c-287 83 -471 203 -471 429c0 227 196 396 494 396c330 0 515 -212 515 -440h-195c0 164 -102 283 -320 283c-204 0 -299 -101 -299 -236c0 -123 100 -199 339 -266c330 -93 478 -221 478 -447c0 -237 -200 -390 -508 -390c-269 0 -550 151 -550 442h194
c0 -200 169 -286 356 -286c201 0 313 90 313 232c0 137 -71 203 -346 283z" />
    <glyph glyph-name="uni1E9E" unicode="&#x1e9e;" horiz-adv-x="1323" 
d="M764 846c298 -14 467 -170 467 -438c0 -273 -204 -429 -492 -429c-93 0 -187 15 -281 50l54 152c55 -26 131 -51 227 -51c193 0 306 113 306 274c0 206 -112 297 -330 297h-147v150l307 373c-64 52 -147 102 -282 102c-219 0 -264 -168 -264 -366v-960h-186v962
c1 340 146 514 450 514c217 0 373 -100 503 -224z" />
    <glyph glyph-name="T" unicode="T" horiz-adv-x="1222" 
d="M1175 1456v-157h-467v-1299h-192v1299h-466v157h1125z" />
    <glyph glyph-name="U" unicode="U" horiz-adv-x="1328" 
d="M1195 1456v-985c0 -328 -247 -491 -529 -491c-297 0 -526 163 -526 491v985h192v-985c0 -228 134 -335 334 -335c201 0 334 107 334 335v985h195z" />
    <glyph glyph-name="Uacute" unicode="&#xda;" horiz-adv-x="1328" 
d="M768 1847h225l-269 -293h-150zM1195 1456v-985c0 -328 -247 -491 -529 -491c-297 0 -526 163 -526 491v985h192v-985c0 -228 134 -335 334 -335c201 0 334 107 334 335v985h195z" />
    <glyph glyph-name="Ucircumflex" unicode="&#xdb;" horiz-adv-x="1328" 
d="M971 1574v-10h-154l-150 170l-149 -170h-153v11l246 272h112zM1195 1456v-985c0 -328 -247 -491 -529 -491c-297 0 -526 163 -526 491v985h192v-985c0 -228 134 -335 334 -335c201 0 334 107 334 335v985h195z" />
    <glyph glyph-name="Udieresis" unicode="&#xdc;" horiz-adv-x="1328" 
d="M454 1789c72 0 110 -47 110 -106c0 -58 -38 -104 -110 -104s-110 46 -110 104c0 59 38 106 110 106zM884 1787c72 0 111 -47 111 -106c0 -58 -39 -104 -111 -104s-109 46 -109 104c0 59 37 106 109 106zM1195 1456v-985c0 -328 -247 -491 -529 -491
c-297 0 -526 163 -526 491v985h192v-985c0 -228 134 -335 334 -335c201 0 334 107 334 335v985h195z" />
    <glyph glyph-name="Ugrave" unicode="&#xd9;" horiz-adv-x="1328" 
d="M756 1554h-160l-259 293h226zM1195 1456v-985c0 -328 -247 -491 -529 -491c-297 0 -526 163 -526 491v985h192v-985c0 -228 134 -335 334 -335c201 0 334 107 334 335v985h195z" />
    <glyph glyph-name="V" unicode="V" horiz-adv-x="1305" 
d="M1067 1456h211l-539 -1456h-172l-538 1456h211l412 -1200z" />
    <glyph glyph-name="W" unicode="W" horiz-adv-x="1817" 
d="M1578 1456h195l-352 -1456h-177l-299 1063l-22 108l-23 -108l-310 -1063h-177l-352 1456h194l229 -998l28 -189l40 170l288 1017h163l280 -1017l41 -174l30 194z" />
    <glyph glyph-name="X" unicode="X" horiz-adv-x="1285" 
d="M645 897l348 559h227l-459 -721l470 -735h-229l-357 570l-359 -570h-228l471 735l-461 721h228z" />
    <glyph glyph-name="Y" unicode="Y" horiz-adv-x="1230" 
d="M614 724l378 732h220l-501 -912v-544h-195v544l-501 912h222z" />
    <glyph glyph-name="Yacute" unicode="&#xdd;" horiz-adv-x="1230" 
d="M719 1846h225l-269 -293h-150zM614 724l378 732h220l-501 -912v-544h-195v544l-501 912h222z" />
    <glyph glyph-name="Z" unicode="Z" horiz-adv-x="1227" 
d="M314 156h832v-156h-1059v143l798 1156h-786v157h1015v-139z" />
    <glyph glyph-name="K.alt" horiz-adv-x="1316" 
d="M1073 0l-525 655h-176v-655h-194v1456h194v-642h149l507 642h241l-556 -705l598 -751h-238z" />
    <glyph glyph-name="R.alt" horiz-adv-x="1356" 
d="M1185 236c0 -81 15 -162 67 -211v-25h-199c-60 54 -62 185 -62 238v129c0 158 -99 262 -262 262h-357v-629h-194v1456h526c318 0 491 -144 491 -415c0 -151 -86 -263 -239 -328c171 -53 229 -181 229 -344v-133zM684 785c230 0 317 92 317 256c0 157 -87 258 -299 258
h-330v-514h312z" />
    <glyph glyph-name="K.alt2" horiz-adv-x="1342" 
d="M1276 0h-239l-665 692v-692h-194v1456h194v-647h11l611 647h242l-660 -709z" />
    <glyph glyph-name="C.ss06" horiz-adv-x="1411" 
d="M1310 462c-31 -276 -216 -483 -556 -483c-356 0 -628 287 -628 718v61c0 431 255 719 619 719c330 0 535 -200 566 -488h-195c-30 202 -147 331 -371 331c-261 0 -424 -229 -424 -560v-63c0 -332 182 -562 433 -562c234 0 330 123 362 327h194z" />
    <glyph glyph-name="D.ss06" horiz-adv-x="1428" 
d="M612 1456c389 0 686 -274 686 -707v-43c0 -433 -293 -706 -703 -706h-417v1456h434zM1102 706v45c0 346 -196 548 -491 548h-239v-1143h222c318 0 508 221 508 550z" />
    <glyph glyph-name="G.ss06" horiz-adv-x="1455" 
d="M1312 191c-53 -79 -215 -212 -529 -212c-370 0 -657 278 -657 736v27c0 457 263 735 621 735c355 0 525 -189 565 -447h-195c-31 157 -123 290 -370 290c-250 0 -426 -227 -426 -576v-29c0 -360 199 -580 462 -580c194 0 299 63 335 107v327h-334v154h528v-532z" />
    <glyph glyph-name="O.ss06" horiz-adv-x="1505" 
d="M1376 706c0 -427 -266 -727 -623 -727c-347 0 -627 300 -627 727v44c0 426 278 727 625 727c357 0 625 -301 625 -727v-44zM1184 752c0 335 -183 562 -433 562c-239 0 -432 -227 -432 -562v-46c0 -338 195 -565 434 -565c252 0 431 227 431 565v46z" />
    <glyph glyph-name="Q.ss06" horiz-adv-x="1508" 
d="M1376 706c0 -293 -124 -525 -317 -643l250 -195l-132 -120l-306 242c-38 -7 -77 -11 -118 -11c-347 0 -627 299 -627 727v42c0 428 278 729 625 729c357 0 625 -301 625 -729v-42zM319 706c0 -339 195 -565 434 -565c252 0 431 226 431 565v44c0 337 -183 564 -433 564
c-239 0 -432 -227 -432 -564v-44z" />
    <glyph glyph-name="a" unicode="a" horiz-adv-x="1115" 
d="M965 236c0 -72 13 -162 38 -220v-16h-195c-12 27 -21 70 -26 113c-69 -73 -174 -133 -307 -133c-221 0 -366 141 -366 320c0 233 190 356 487 356h182v86c0 129 -78 212 -227 212c-139 0 -232 -81 -232 -172h-187c0 155 168 320 430 320c236 0 403 -120 403 -362v-504z
M502 140c134 0 236 80 276 163v223h-152c-211 0 -330 -67 -330 -200c0 -104 71 -186 206 -186z" />
    <glyph glyph-name="aacute" unicode="&#xe1;" horiz-adv-x="1115" 
d="M908 1536l-269 -293h-150l194 293h225zM965 236c0 -72 13 -162 38 -220v-16h-195c-12 27 -21 70 -26 113c-69 -73 -174 -133 -307 -133c-221 0 -366 141 -366 320c0 233 190 356 487 356h182v86c0 129 -78 212 -227 212c-139 0 -232 -81 -232 -172h-187
c0 155 168 320 430 320c236 0 403 -120 403 -362v-504zM502 140c134 0 236 80 276 163v223h-152c-211 0 -330 -67 -330 -200c0 -104 71 -186 206 -186z" />
    <glyph glyph-name="acircumflex" unicode="&#xe2;" horiz-adv-x="1115" 
d="M582 1423l-149 -170h-153v11l246 272h112l248 -273v-10h-154zM965 236c0 -72 13 -162 38 -220v-16h-195c-12 27 -21 70 -26 113c-69 -73 -174 -133 -307 -133c-221 0 -366 141 -366 320c0 233 190 356 487 356h182v86c0 129 -78 212 -227 212c-139 0 -232 -81 -232 -172
h-187c0 155 168 320 430 320c236 0 403 -120 403 -362v-504zM502 140c134 0 236 80 276 163v223h-152c-211 0 -330 -67 -330 -200c0 -104 71 -186 206 -186z" />
    <glyph glyph-name="adieresis" unicode="&#xe4;" horiz-adv-x="1115" 
d="M369 1268c-72 0 -110 46 -110 104c0 59 38 106 110 106s110 -47 110 -106c0 -58 -38 -104 -110 -104zM799 1266c-72 0 -109 46 -109 104c0 59 37 106 109 106s111 -47 111 -106c0 -58 -39 -104 -111 -104zM965 236c0 -72 13 -162 38 -220v-16h-195c-12 27 -21 70 -26 113
c-69 -73 -174 -133 -307 -133c-221 0 -366 141 -366 320c0 233 190 356 487 356h182v86c0 129 -78 212 -227 212c-139 0 -232 -81 -232 -172h-187c0 155 168 320 430 320c236 0 403 -120 403 -362v-504zM502 140c134 0 236 80 276 163v223h-152c-211 0 -330 -67 -330 -200
c0 -104 71 -186 206 -186z" />
    <glyph glyph-name="agrave" unicode="&#xe0;" horiz-adv-x="1115" 
d="M671 1243h-160l-259 293h226zM965 236c0 -72 13 -162 38 -220v-16h-195c-12 27 -21 70 -26 113c-69 -73 -174 -133 -307 -133c-221 0 -366 141 -366 320c0 233 190 356 487 356h182v86c0 129 -78 212 -227 212c-139 0 -232 -81 -232 -172h-187c0 155 168 320 430 320
c236 0 403 -120 403 -362v-504zM502 140c134 0 236 80 276 163v223h-152c-211 0 -330 -67 -330 -200c0 -104 71 -186 206 -186z" />
    <glyph glyph-name="aring" unicode="&#xe5;" horiz-adv-x="1115" 
d="M582 1216c-123 0 -216 87 -216 203s93 208 216 208c121 0 215 -92 215 -208s-94 -203 -215 -203zM582 1538c-68 0 -116 -56 -116 -119c0 -59 48 -115 116 -115s116 55 116 115c0 63 -48 119 -116 119zM965 236c0 -72 13 -162 38 -220v-16h-195c-12 27 -21 70 -26 113
c-69 -73 -174 -133 -307 -133c-221 0 -366 141 -366 320c0 233 190 356 487 356h182v86c0 129 -78 212 -227 212c-139 0 -232 -81 -232 -172h-187c0 155 168 320 430 320c236 0 403 -120 403 -362v-504zM502 140c134 0 236 80 276 163v223h-152c-211 0 -330 -67 -330 -200
c0 -104 71 -186 206 -186z" />
    <glyph glyph-name="atilde" unicode="&#xe3;" horiz-adv-x="1115" 
d="M453 1358c-56 0 -99 -49 -99 -112l-125 7c0 145 93 246 215 246c113 0 162 -96 268 -96c56 0 100 49 100 113l125 -12c0 -146 -95 -241 -216 -241c-136 0 -157 95 -268 95zM965 236c0 -72 13 -162 38 -220v-16h-195c-12 27 -21 70 -26 113c-69 -73 -174 -133 -307 -133
c-221 0 -366 141 -366 320c0 233 190 356 487 356h182v86c0 129 -78 212 -227 212c-139 0 -232 -81 -232 -172h-187c0 155 168 320 430 320c236 0 403 -120 403 -362v-504zM502 140c134 0 236 80 276 163v223h-152c-211 0 -330 -67 -330 -200c0 -104 71 -186 206 -186z" />
    <glyph glyph-name="ae" unicode="&#xe6;" horiz-adv-x="1730" 
d="M1661 616v-117h-727c7 -205 107 -369 329 -369c158 0 248 62 315 107l65 -135c-44 -36 -166 -123 -380 -123c-179 0 -313 68 -398 180c-67 -88 -208 -180 -432 -180c-228 0 -355 128 -355 325c0 210 155 331 449 331h221v85c0 143 -75 232 -212 232
c-149 0 -244 -89 -244 -192l-186 18c0 187 174 324 430 324c153 0 275 -55 340 -165c83 104 203 166 342 165c288 0 443 -187 443 -486zM1474 640v31c0 152 -69 281 -256 281c-160 0 -258 -134 -280 -312h536zM470 129c101 0 217 62 278 127v241h-219
c-174 0 -264 -93 -264 -197c0 -96 65 -171 205 -171z" />
    <glyph glyph-name="b" unicode="b" horiz-adv-x="1150" 
d="M635 1102c271 0 422 -222 422 -552v-21c0 -316 -152 -549 -420 -549c-141 0 -245 51 -317 144l-9 -124h-171v1536h187v-570c71 88 172 136 308 136zM870 529v21c0 216 -73 397 -282 397c-133 0 -215 -73 -261 -168v-474c47 -95 130 -169 263 -169c199 0 280 177 280 393z
" />
    <glyph glyph-name="c" unicode="c" horiz-adv-x="1073" 
d="M829 342h177c-11 -193 -202 -362 -432 -362c-326 0 -482 249 -482 540v42c0 291 157 540 482 540c254 0 422 -169 432 -392h-177c-10 134 -107 242 -255 242c-227 0 -295 -201 -295 -390v-42c0 -191 66 -390 295 -390c132 0 244 89 255 212z" />
    <glyph glyph-name="ccedilla" unicode="&#xe7;" horiz-adv-x="1073" 
d="M574 130c132 0 244 89 255 212h177c-11 -185 -187 -348 -404 -361l-10 -44c77 -13 153 -57 153 -173c0 -125 -105 -209 -304 -209l-7 106c92 0 166 29 166 99c0 68 -49 86 -161 95l31 134c-255 48 -378 273 -378 531v42c0 291 157 540 482 540c254 0 422 -169 432 -392
h-177c-10 134 -107 242 -255 242c-227 0 -295 -201 -295 -390v-42c0 -191 66 -390 295 -390z" />
    <glyph glyph-name="d" unicode="d" horiz-adv-x="1156" 
d="M822 1536h187v-1536h-171l-9 115c-71 -87 -172 -135 -308 -135c-254 0 -426 233 -426 549v21c0 330 170 552 428 552c130 0 228 -45 299 -127v561zM567 136c129 0 206 65 255 156v503c-48 88 -127 152 -253 152c-202 0 -287 -181 -287 -397v-21c0 -216 85 -393 285 -393z
" />
    <glyph glyph-name="eth" unicode="&#xf0;" horiz-adv-x="1201" 
d="M820 1303c157 -166 250 -394 250 -670v-98c0 -329 -197 -555 -468 -555c-281 0 -476 216 -476 488c0 308 190 510 448 510c112 0 211 -45 282 -113c-34 139 -101 249 -188 335l-217 -147l-74 99l192 130c-93 65 -201 110 -315 140l58 159c158 -36 298 -101 414 -193
l189 128l73 -99zM883 535v100c0 19 -1 39 -1 57c-38 70 -126 135 -264 135c-194 0 -305 -139 -305 -359c0 -165 105 -337 293 -337c171 0 277 173 277 404z" />
    <glyph glyph-name="e" unicode="e" horiz-adv-x="1087" 
d="M1012 573v-83h-732c5 -200 123 -360 320 -360c131 0 217 58 285 147l113 -88c-70 -107 -193 -209 -408 -209c-302 0 -497 219 -497 523v43c0 352 230 556 473 556c311 0 446 -227 446 -529zM825 640v14c-9 144 -70 298 -259 298c-146 0 -255 -112 -280 -312h539z" />
    <glyph glyph-name="eacute" unicode="&#xe9;" horiz-adv-x="1087" 
d="M891 1536l-269 -293h-150l194 293h225zM1012 573v-83h-732c5 -200 123 -360 320 -360c131 0 217 58 285 147l113 -88c-70 -107 -193 -209 -408 -209c-302 0 -497 219 -497 523v43c0 352 230 556 473 556c311 0 446 -227 446 -529zM825 640v14c-9 144 -70 298 -259 298
c-146 0 -255 -112 -280 -312h539z" />
    <glyph glyph-name="ecircumflex" unicode="&#xea;" horiz-adv-x="1087" 
d="M565 1423l-149 -170h-153v11l246 272h112l248 -273v-10h-154zM1012 573v-83h-732c5 -200 123 -360 320 -360c131 0 217 58 285 147l113 -88c-70 -107 -193 -209 -408 -209c-302 0 -497 219 -497 523v43c0 352 230 556 473 556c311 0 446 -227 446 -529zM825 640v14
c-9 144 -70 298 -259 298c-146 0 -255 -112 -280 -312h539z" />
    <glyph glyph-name="edieresis" unicode="&#xeb;" horiz-adv-x="1087" 
d="M352 1268c-72 0 -110 46 -110 104c0 59 38 106 110 106s110 -47 110 -106c0 -58 -38 -104 -110 -104zM782 1266c-72 0 -109 46 -109 104c0 59 37 106 109 106s111 -47 111 -106c0 -58 -39 -104 -111 -104zM1012 573v-83h-732c5 -200 123 -360 320 -360
c131 0 217 58 285 147l113 -88c-70 -107 -193 -209 -408 -209c-302 0 -497 219 -497 523v43c0 352 230 556 473 556c311 0 446 -227 446 -529zM825 640v14c-9 144 -70 298 -259 298c-146 0 -255 -112 -280 -312h539z" />
    <glyph glyph-name="egrave" unicode="&#xe8;" horiz-adv-x="1087" 
d="M654 1243h-160l-259 293h226zM1012 573v-83h-732c5 -200 123 -360 320 -360c131 0 217 58 285 147l113 -88c-70 -107 -193 -209 -408 -209c-302 0 -497 219 -497 523v43c0 352 230 556 473 556c311 0 446 -227 446 -529zM825 640v14c-9 144 -70 298 -259 298
c-146 0 -255 -112 -280 -312h539z" />
    <glyph glyph-name="f" unicode="f" horiz-adv-x="712" 
d="M605 1400c-118 0 -187 -72 -187 -203v-115h230v-141h-230v-941h-187v941h-170v141h170v115c0 232 135 360 357 360c42 0 86 -6 127 -16l-10 -149c-28 5 -65 8 -100 8z" />
    <glyph glyph-name="g" unicode="g" horiz-adv-x="1150" 
d="M841 1082h170v-1059c0 -287 -189 -450 -459 -450c-112 0 -304 47 -401 188l97 109c90 -110 192 -147 290 -147c174 0 286 102 286 291v93c-71 -82 -170 -127 -302 -127c-260 0 -426 233 -426 549v21c0 330 164 552 428 552c136 0 237 -49 309 -138zM568 136
c131 0 208 67 256 159v497c-47 89 -127 155 -254 155c-202 0 -287 -181 -287 -397v-21c0 -216 85 -393 285 -393z" />
    <glyph glyph-name="h" unicode="h" horiz-adv-x="1128" 
d="M645 1102c213 0 347 -110 347 -393v-709h-187v711c0 170 -75 236 -215 236c-118 0 -211 -71 -263 -173v-774h-187v1536h187v-582c77 93 187 148 318 148z" />
    <glyph glyph-name="i" unicode="i" horiz-adv-x="498" 
d="M251 1476c72 0 111 -47 111 -106c0 -58 -39 -104 -111 -104s-109 46 -109 104c0 59 37 106 109 106zM343 0h-187v1082h187v-1082z" />
    <glyph glyph-name="dotlessi" unicode="&#x131;" horiz-adv-x="508" 
d="M342 0h-186v1082h186v-1082z" />
    <glyph glyph-name="iacute" unicode="&#xed;" horiz-adv-x="508" 
d="M354 1534h225l-269 -293h-150zM342 0h-186v1082h186v-1082z" />
    <glyph glyph-name="icircumflex" unicode="&#xee;" horiz-adv-x="508" 
d="M557 1261v-10h-154l-150 170l-149 -170h-153v11l246 272h112zM342 0h-186v1082h186v-1082z" />
    <glyph glyph-name="idieresis" unicode="&#xef;" horiz-adv-x="508" 
d="M40 1476c72 0 110 -47 110 -106c0 -58 -38 -104 -110 -104s-110 46 -110 104c0 59 38 106 110 106zM470 1474c72 0 111 -47 111 -106c0 -58 -39 -104 -111 -104s-109 46 -109 104c0 59 37 106 109 106zM342 0h-186v1082h186v-1082z" />
    <glyph glyph-name="igrave" unicode="&#xec;" horiz-adv-x="508" 
d="M342 1241h-160l-259 293h226zM342 0h-186v1082h186v-1082z" />
    <glyph glyph-name="j" unicode="j" horiz-adv-x="491" 
d="M236 1476c72 0 111 -47 111 -106c0 -58 -39 -104 -111 -104s-109 46 -109 104c0 59 37 106 109 106zM333 1082v-1211c0 -199 -93 -308 -283 -308c-34 0 -84 7 -115 17l1 148c25 -6 61 -9 85 -9c80 0 125 41 125 152v1211h187z" />
    <glyph glyph-name="k" unicode="k" horiz-adv-x="1039" 
d="M818 0l-374 502l-116 -120v-382h-187v1536h187v-928l99 117l334 357h227l-421 -451l471 -631h-220z" />
    <glyph glyph-name="l" unicode="l" horiz-adv-x="498" 
d="M343 0h-187v1536h187v-1536z" />
    <glyph glyph-name="m" unicode="m" horiz-adv-x="1795" 
d="M1294 1102c232 0 362 -118 362 -391v-711h-187v713c0 182 -90 234 -230 234c-149 0 -234 -103 -248 -228v-719h-187v712c0 170 -91 235 -231 235c-130 0 -207 -62 -247 -153v-794h-187v1082h177l5 -117c74 86 180 137 320 137c139 0 252 -52 309 -172
c72 103 188 172 344 172z" />
    <glyph glyph-name="n" unicode="n" horiz-adv-x="1131" 
d="M645 1102c213 0 347 -110 347 -393v-709h-187v711c0 170 -75 236 -215 236c-118 0 -211 -71 -263 -173v-774h-187v1082h177l6 -133c77 96 188 153 322 153z" />
    <glyph glyph-name="ntilde" unicode="&#xf1;" horiz-adv-x="1131" 
d="M444 1358c-56 0 -99 -49 -99 -112l-125 7c0 145 93 246 215 246c113 0 162 -96 268 -96c56 0 100 49 100 113l125 -12c0 -146 -95 -241 -216 -241c-136 0 -157 95 -268 95zM645 1102c213 0 347 -110 347 -393v-709h-187v711c0 170 -75 236 -215 236
c-118 0 -211 -71 -263 -173v-774h-187v1082h177l6 -133c77 96 188 153 322 153z" />
    <glyph glyph-name="o" unicode="o" horiz-adv-x="1169" 
d="M92 552c0 313 189 550 491 550c306 0 494 -237 494 -550v-23c0 -313 -188 -549 -492 -549s-493 236 -493 549v23zM279 529c0 -215 101 -399 306 -399c203 0 305 184 305 399v23c0 213 -102 400 -307 400c-203 0 -304 -187 -304 -400v-23z" />
    <glyph glyph-name="oacute" unicode="&#xf3;" horiz-adv-x="1169" 
d="M676 1536h225l-269 -293h-150zM92 552c0 313 189 550 491 550c306 0 494 -237 494 -550v-23c0 -313 -188 -549 -492 -549s-493 236 -493 549v23zM279 529c0 -215 101 -399 306 -399c203 0 305 184 305 399v23c0 213 -102 400 -307 400c-203 0 -304 -187 -304 -400v-23z
" />
    <glyph glyph-name="ocircumflex" unicode="&#xf4;" horiz-adv-x="1169" 
d="M879 1263v-10h-154l-150 170l-149 -170h-153v11l246 272h112zM92 552c0 313 189 550 491 550c306 0 494 -237 494 -550v-23c0 -313 -188 -549 -492 -549s-493 236 -493 549v23zM279 529c0 -215 101 -399 306 -399c203 0 305 184 305 399v23c0 213 -102 400 -307 400
c-203 0 -304 -187 -304 -400v-23z" />
    <glyph glyph-name="odieresis" unicode="&#xf6;" horiz-adv-x="1169" 
d="M362 1478c72 0 110 -47 110 -106c0 -58 -38 -104 -110 -104s-110 46 -110 104c0 59 38 106 110 106zM792 1476c72 0 111 -47 111 -106c0 -58 -39 -104 -111 -104s-109 46 -109 104c0 59 37 106 109 106zM92 552c0 313 189 550 491 550c306 0 494 -237 494 -550v-23
c0 -313 -188 -549 -492 -549s-493 236 -493 549v23zM279 529c0 -215 101 -399 306 -399c203 0 305 184 305 399v23c0 213 -102 400 -307 400c-203 0 -304 -187 -304 -400v-23z" />
    <glyph glyph-name="ograve" unicode="&#xf2;" horiz-adv-x="1169" 
d="M664 1243h-160l-259 293h226zM92 552c0 313 189 550 491 550c306 0 494 -237 494 -550v-23c0 -313 -188 -549 -492 -549s-493 236 -493 549v23zM279 529c0 -215 101 -399 306 -399c203 0 305 184 305 399v23c0 213 -102 400 -307 400c-203 0 -304 -187 -304 -400v-23z
" />
    <glyph glyph-name="oslash" unicode="&#xf8;" horiz-adv-x="1161" 
d="M883 1004c124 -98 194 -261 194 -452v-23c0 -313 -188 -549 -492 -549c-70 0 -133 12 -190 35l-74 -150h-124l101 204c-131 97 -206 263 -206 460v23c0 313 189 550 491 550c76 0 144 -14 204 -41l73 148h124zM279 529c0 -120 32 -231 95 -305l343 696
c-38 20 -83 32 -134 32c-203 0 -304 -187 -304 -400v-23zM890 529v23c0 113 -29 218 -86 292l-340 -689c35 -16 76 -25 121 -25c203 0 305 184 305 399z" />
    <glyph glyph-name="otilde" unicode="&#xf5;" horiz-adv-x="1169" 
d="M930 1504c0 -146 -95 -241 -216 -241c-136 0 -157 95 -268 95c-56 0 -99 -49 -99 -112l-125 7c0 145 93 246 215 246c113 0 162 -96 268 -96c56 0 100 49 100 113zM92 552c0 313 189 550 491 550c306 0 494 -237 494 -550v-23c0 -313 -188 -549 -492 -549
s-493 236 -493 549v23zM279 529c0 -215 101 -399 306 -399c203 0 305 184 305 399v23c0 213 -102 400 -307 400c-203 0 -304 -187 -304 -400v-23z" />
    <glyph glyph-name="oe" unicode="&#x153;" horiz-adv-x="1859" 
d="M1791 620v-121h-716c7 -205 110 -369 303 -369c146 0 242 47 309 108l73 -125c-65 -65 -186 -134 -382 -134c-179 0 -318 80 -402 212c-81 -131 -216 -212 -394 -212c-304 0 -485 237 -485 550v23c0 313 181 550 483 550c180 0 317 -83 398 -215c86 135 224 216 372 215
c298 0 441 -200 441 -482zM878 529v23c0 213 -93 400 -298 400c-203 0 -296 -187 -296 -400v-23c0 -215 93 -399 298 -399c203 0 296 184 296 399zM1604 649v26c0 146 -78 277 -254 277c-139 0 -243 -130 -269 -303h523z" />
    <glyph glyph-name="p" unicode="p" horiz-adv-x="1150" 
d="M633 1102c272 0 422 -222 422 -552v-21c0 -316 -151 -549 -419 -549c-134 0 -236 44 -309 124v-520h-187v1498h170l10 -118c73 89 177 138 313 138zM868 529v21c0 216 -89 397 -291 397c-123 0 -202 -63 -250 -149v-521c48 -85 125 -147 252 -147c200 0 289 183 289 399z
" />
    <glyph glyph-name="thorn" unicode="&#xfe;" horiz-adv-x="1181" 
d="M642 1102c272 0 423 -222 423 -552v-21c0 -316 -152 -549 -420 -549c-134 0 -236 44 -309 124v-520h-187v1952h187v-563c73 83 174 129 306 129zM878 529v21c0 216 -90 397 -291 397c-124 0 -203 -63 -251 -149v-521c49 -85 126 -147 253 -147c199 0 289 183 289 399z
" />
    <glyph glyph-name="q" unicode="q" horiz-adv-x="1165" 
d="M837 1082h171v-1498h-187v514c-72 -76 -170 -118 -297 -118c-267 0 -429 233 -429 549v21c0 330 160 552 431 552c131 0 231 -45 303 -127zM571 130c122 0 199 60 250 145v536c-50 81 -130 141 -248 141c-202 0 -291 -186 -291 -402v-21c0 -216 89 -399 289 -399z" />
    <glyph glyph-name="r" unicode="r" horiz-adv-x="694" 
d="M582 1102c25 0 69 -8 82 -14v-171c-32 6 -56 8 -91 8c-126 0 -206 -62 -246 -157v-768h-187v1082h182l4 -123c54 88 139 143 256 143z" />
    <glyph glyph-name="s" unicode="s" horiz-adv-x="1057" 
d="M522 475c-240 50 -390 133 -390 311c0 171 158 316 401 316c260 0 413 -151 413 -337h-187c0 89 -81 187 -226 187c-153 0 -214 -81 -214 -160c0 -81 45 -123 249 -168c265 -61 389 -149 389 -324c0 -189 -166 -320 -419 -320c-287 0 -443 174 -443 353h187
c9 -153 141 -203 256 -203c151 0 232 68 232 157c0 80 -35 144 -248 188z" />
    <glyph glyph-name="germandbls" unicode="&#xdf;" horiz-adv-x="1218" 
d="M325 0h-186v1112c0 292 160 442 394 442c218 0 377 -106 377 -337c0 -214 -128 -259 -128 -397c0 -184 349 -245 349 -503c0 -228 -161 -337 -385 -337c-110 0 -248 35 -299 73l42 153c46 -29 145 -76 237 -76c156 0 218 79 218 178c0 190 -348 243 -348 514
c0 161 138 226 138 380c0 133 -82 202 -191 202c-137 0 -218 -91 -218 -292v-1112z" />
    <glyph glyph-name="longs" unicode="&#x17f;" horiz-adv-x="509" 
d="M160 0v1197c0 232 129 360 340 360c48 0 95 -9 143 -21l-23 -141c-24 7 -53 12 -91 12c-118 0 -182 -79 -182 -210v-1197h-187z" />
    <glyph glyph-name="t" unicode="t" horiz-adv-x="670" 
d="M598 149l1 -149c-29 -9 -77 -20 -143 -20c-137 0 -250 72 -250 289v672h-197v141h197v263h187v-263h202v-141h-202v-673c0 -112 57 -130 119 -130c31 0 70 7 86 11z" />
    <glyph glyph-name="u" unicode="u" horiz-adv-x="1129" 
d="M802 1082h187v-1082h-178l-4 106c-67 -79 -170 -126 -316 -126c-212 0 -355 116 -355 404v698h187v-700c0 -196 98 -246 198 -246c150 0 238 62 281 156v790z" />
    <glyph glyph-name="uacute" unicode="&#xfa;" horiz-adv-x="1129" 
d="M893 1536l-269 -293h-150l194 293h225zM802 1082h187v-1082h-178l-4 106c-67 -79 -170 -126 -316 -126c-212 0 -355 116 -355 404v698h187v-700c0 -196 98 -246 198 -246c150 0 238 62 281 156v790z" />
    <glyph glyph-name="ucircumflex" unicode="&#xfb;" horiz-adv-x="1129" 
d="M567 1423l-149 -170h-153v11l246 272h112l248 -273v-10h-154zM802 1082h187v-1082h-178l-4 106c-67 -79 -170 -126 -316 -126c-212 0 -355 116 -355 404v698h187v-700c0 -196 98 -246 198 -246c150 0 238 62 281 156v790z" />
    <glyph glyph-name="udieresis" unicode="&#xfc;" horiz-adv-x="1129" 
d="M354 1268c-72 0 -110 46 -110 104c0 59 38 106 110 106s110 -47 110 -106c0 -58 -38 -104 -110 -104zM784 1266c-72 0 -109 46 -109 104c0 59 37 106 109 106s111 -47 111 -106c0 -58 -39 -104 -111 -104zM802 1082h187v-1082h-178l-4 106c-67 -79 -170 -126 -316 -126
c-212 0 -355 116 -355 404v698h187v-700c0 -196 98 -246 198 -246c150 0 238 62 281 156v790z" />
    <glyph glyph-name="ugrave" unicode="&#xf9;" horiz-adv-x="1129" 
d="M656 1243h-160l-259 293h226zM802 1082h187v-1082h-178l-4 106c-67 -79 -170 -126 -316 -126c-212 0 -355 116 -355 404v698h187v-700c0 -196 98 -246 198 -246c150 0 238 62 281 156v790z" />
    <glyph glyph-name="v" unicode="v" horiz-adv-x="993" 
d="M764 1082h191l-388 -1082h-142l-392 1082h191l274 -829z" />
    <glyph glyph-name="w" unicode="w" horiz-adv-x="1539" 
d="M1306 1082h185l-314 -1082h-151l-262 817l-256 -817h-151l-314 1082h186l212 -802l251 802h151l255 -820z" />
    <glyph glyph-name="x" unicode="x" horiz-adv-x="1016" 
d="M504 687l238 395h218l-353 -534l364 -548h-215l-249 407l-248 -407h-218l365 548l-354 534h216z" />
    <glyph glyph-name="y" unicode="y" horiz-adv-x="969" 
d="M745 1082h199l-434 -1249c-39 -107 -125 -270 -321 -270c-30 0 -85 10 -105 16v149c11 -2 40 -5 50 -5c125 0 189 45 233 178l40 110l-385 1071h204l268 -808z" />
    <glyph glyph-name="yacute" unicode="&#xfd;" horiz-adv-x="969" 
d="M834 1536l-269 -293h-150l194 293h225zM745 1082h199l-434 -1249c-39 -107 -125 -270 -321 -270c-30 0 -85 10 -105 16v149c11 -2 40 -5 50 -5c125 0 189 45 233 178l40 110l-385 1071h204l268 -808z" />
    <glyph glyph-name="ydieresis" unicode="&#xff;" horiz-adv-x="969" 
d="M295 1268c-72 0 -110 46 -110 104c0 59 38 106 110 106s110 -47 110 -106c0 -58 -38 -104 -110 -104zM725 1266c-72 0 -109 46 -109 104c0 59 37 106 109 106s111 -47 111 -106c0 -58 -39 -104 -111 -104zM745 1082h199l-434 -1249c-39 -107 -125 -270 -321 -270
c-30 0 -85 10 -105 16v149c11 -2 40 -5 50 -5c125 0 189 45 233 178l40 110l-385 1071h204l268 -808z" />
    <glyph glyph-name="z" unicode="z" horiz-adv-x="1016" 
d="M316 150h631v-150h-858v135l598 796h-590v151h821v-130z" />
    <glyph glyph-name="g.alt" horiz-adv-x="1082" 
d="M619 196c259 0 412 -92 412 -294c0 -153 -195 -340 -537 -340c-301 0 -464 129 -464 277c0 128 83 215 179 264c-35 29 -57 69 -57 121c0 103 59 165 115 206c-109 66 -175 173 -175 292v22c0 208 176 358 429 358c55 0 107 -7 153 -20h366l2 -145h-152
c39 -55 60 -120 60 -193v-22c0 -195 -173 -358 -427 -358c-54 0 -105 7 -152 21c-27 -23 -51 -56 -51 -106c0 -63 56 -83 127 -83h172zM279 744v-22c0 -104 97 -207 244 -207c145 0 241 103 241 207v22c0 112 -98 208 -243 208c-144 0 -242 -96 -242 -208zM494 -288
c225 0 350 106 350 190c0 91 -53 144 -225 144h-208c-27 0 -53 2 -78 6c-65 -29 -116 -96 -116 -177c0 -89 87 -163 277 -163z" />
    <glyph glyph-name="k.alt" horiz-adv-x="1045" 
d="M825 0l-362 502h-130v-502h-186v1536h186v-882h126l313 428h221l-376 -492l429 -590h-221z" />
    <glyph glyph-name="k.alt2" horiz-adv-x="1041" 
d="M781 0l-442 500h-6v-500h-186v1560h186v-907h1l393 429h242l-469 -499l511 -583h-230z" />
    <glyph glyph-name="b.ss06" horiz-adv-x="1150" 
d="M635 1102c271 0 442 -221 442 -551v-21c0 -316 -172 -550 -440 -550c-143 0 -248 53 -320 148l-16 -128h-161v1536h187v-570c71 88 172 136 308 136zM890 530v21c0 223 -101 396 -302 396c-133 0 -215 -73 -261 -168v-474c47 -95 130 -169 263 -169
c199 0 300 178 300 394z" />
    <glyph glyph-name="c.ss06" horiz-adv-x="1075" 
d="M831 342h177c-10 -193 -202 -362 -431 -362c-327 0 -484 249 -484 540v42c0 291 158 540 483 540c254 0 422 -169 432 -392h-177c-10 134 -107 242 -255 242c-227 0 -296 -201 -296 -390v-42c0 -191 67 -390 297 -390c131 0 243 89 254 212z" />
    <glyph glyph-name="d.ss06" horiz-adv-x="1172" 
d="M839 1536h186v-1536h-162l-14 119c-71 -89 -174 -139 -312 -139c-254 0 -446 233 -446 549v21c0 330 190 552 448 552c131 0 229 -46 300 -128v562zM583 136c130 0 208 66 256 157v500c-47 89 -127 154 -254 154c-201 0 -307 -174 -307 -397v-21
c0 -216 106 -393 305 -393z" />
    <glyph glyph-name="g.ss06" horiz-adv-x="1165" 
d="M868 1082h157v-1004c0 -323 -169 -505 -470 -505c-106 0 -255 33 -359 105l56 137c82 -56 196 -92 301 -92c198 0 285 121 285 346v38c-71 -82 -170 -127 -302 -127c-260 0 -445 233 -445 549v21c0 330 184 552 447 552c139 0 243 -52 314 -145zM582 136
c131 0 208 66 256 158v499c-47 88 -127 154 -254 154c-201 0 -306 -174 -306 -397v-21c0 -216 105 -393 304 -393z" />
    <glyph glyph-name="o.ss06" horiz-adv-x="1183" 
d="M90 552c0 313 199 550 500 550c305 0 503 -237 503 -550v-23c0 -313 -198 -549 -501 -549s-502 236 -502 549v23zM277 529c0 -215 111 -399 315 -399c202 0 315 184 315 399v23c0 213 -113 400 -317 400c-202 0 -313 -187 -313 -400v-23z" />
    <glyph glyph-name="p.ss06" horiz-adv-x="1166" 
d="M633 1102c272 0 442 -222 442 -552v-21c0 -316 -171 -549 -439 -549c-134 0 -236 44 -309 124v-520h-187v1498h160l16 -123c74 92 178 143 317 143zM888 529v21c0 223 -109 397 -311 397c-123 0 -202 -63 -250 -149v-521c48 -85 125 -147 252 -147c200 0 309 183 309 399
z" />
    <glyph glyph-name="q.ss06" horiz-adv-x="1181" 
d="M863 1082h162v-1498h-187v515c-72 -77 -170 -119 -297 -119c-268 0 -450 232 -450 548v21c0 330 180 553 452 553c133 0 234 -47 306 -132zM587 130c122 0 200 61 251 147v532c-50 82 -130 143 -249 143c-202 0 -311 -179 -311 -403v-21c0 -216 109 -398 309 -398z" />
    <glyph glyph-name="e.ss07" horiz-adv-x="1087" 
d="M1012 611v-121h-731c11 -201 140 -360 355 -360c122 0 215 42 279 91l57 -126c-59 -53 -168 -115 -345 -115c-324 0 -534 225 -534 540v44c0 341 230 538 473 538c311 0 446 -209 446 -491zM825 640v26c0 146 -70 286 -259 286c-150 0 -260 -112 -282 -312h541z" />
    <glyph glyph-name="g.ss07" horiz-adv-x="1150" 
d="M853 1082h158v-1022c0 -311 -169 -487 -471 -487c-94 0 -229 27 -322 86l56 137c73 -44 172 -73 264 -73c199 0 286 115 286 327v57c-71 -82 -170 -127 -302 -127c-260 0 -426 232 -426 548v21c0 330 164 553 428 553c139 0 242 -52 314 -145zM568 136
c131 0 208 67 256 159v497c-47 89 -127 155 -254 155c-202 0 -287 -174 -287 -398v-21c0 -216 85 -392 285 -392z" />
    <glyph glyph-name="f_f" horiz-adv-x="1424" 
d="M231 1197c0 232 135 360 357 360c42 0 86 -6 127 -16l-10 -149c-28 5 -65 8 -100 8c-118 0 -187 -72 -187 -203v-115h230v-141h-230v-941h-187v941h-170v141h170v115zM1317 1400c-118 0 -187 -72 -187 -203v-115h230v-141h-230v-941h-187v941h-170v141h170v115
c0 232 135 360 357 360c42 0 86 -6 127 -16l-10 -149c-28 5 -65 8 -100 8z" />
    <glyph glyph-name="f_f_i" horiz-adv-x="1749" 
d="M1227 1392c-159 0 -224 -71 -224 -215v-95h221v-141h-221v-941h-187v941h-398v-941h-187v941h-170v141h170v115c0 232 135 360 357 360c42 0 86 -6 127 -16l-10 -149c-28 5 -65 8 -100 8c-118 0 -187 -72 -187 -203v-115h398v95c0 245 152 380 397 380
c97 0 186 -26 284 -61l-32 -154c-60 24 -143 50 -238 50zM1401 1082h187v-1082h-187v1082z" />
    <glyph glyph-name="f_f_l" horiz-adv-x="1749" 
d="M1188 1557c87 0 256 -32 400 -61v-1496h-187v1381c-81 12 -148 19 -199 19c-130 0 -199 -72 -199 -203v-115h230v-141h-230v-941h-187v941h-398v-941h-187v941h-170v141h170v115c0 232 135 360 357 360c42 0 86 -6 127 -16l-10 -149c-28 5 -65 8 -100 8
c-118 0 -187 -72 -187 -203v-115h398v115c0 232 136 360 372 360z" />
    <glyph glyph-name="f_l" horiz-adv-x="1164" 
d="M603 1557c87 0 256 -32 400 -61v-1496h-187v1381c-81 12 -148 19 -199 19c-130 0 -199 -72 -199 -203v-115h230v-141h-230v-941h-187v941h-170v141h170v115c0 232 135 360 372 360z" />
    <glyph glyph-name="fi" unicode="&#xfb01;" horiz-adv-x="1135" 
d="M613 1392c-159 0 -224 -71 -224 -215v-95h220v-141h-220v-941h-187v941h-171v141h171v95c0 245 151 380 397 380c96 0 186 -26 283 -61l-31 -154c-60 24 -143 50 -238 50zM787 1082h187v-1082h-187v1082z" />
    <glyph glyph-name="A.smcp" horiz-adv-x="1159" 
d="M948 0l-109 280h-518l-111 -280h-190l479 1165h167l472 -1165h-190zM381 431h399l-199 507z" />
    <glyph glyph-name="Aacute.smcp" horiz-adv-x="1159" 
d="M908 1566l-269 -293h-150l194 293h225zM948 0l-109 280h-518l-111 -280h-190l479 1165h167l472 -1165h-190zM381 431h399l-199 507z" />
    <glyph glyph-name="Acircumflex.smcp" horiz-adv-x="1159" 
d="M582 1453l-149 -170h-153v11l246 272h112l248 -273v-10h-154zM948 0l-109 280h-518l-111 -280h-190l479 1165h167l472 -1165h-190zM381 431h399l-199 507z" />
    <glyph glyph-name="Adieresis.smcp" horiz-adv-x="1159" 
d="M369 1298c-72 0 -110 46 -110 104c0 59 38 106 110 106s110 -47 110 -106c0 -58 -38 -104 -110 -104zM799 1296c-72 0 -109 46 -109 104c0 59 37 106 109 106s111 -47 111 -106c0 -58 -39 -104 -111 -104zM948 0l-109 280h-518l-111 -280h-190l479 1165h167l472 -1165
h-190zM381 431h399l-199 507z" />
    <glyph glyph-name="Agrave.smcp" horiz-adv-x="1159" 
d="M671 1273h-160l-259 293h226zM948 0l-109 280h-518l-111 -280h-190l479 1165h167l472 -1165h-190zM381 431h399l-199 507z" />
    <glyph glyph-name="Aring.smcp" horiz-adv-x="1159" 
d="M582 1246c-123 0 -216 87 -216 203s93 208 216 208c121 0 215 -92 215 -208s-94 -203 -215 -203zM582 1568c-68 0 -116 -56 -116 -119c0 -59 48 -115 116 -115s116 55 116 115c0 63 -48 119 -116 119zM948 0l-109 280h-518l-111 -280h-190l479 1165h167l472 -1165h-190z
M381 431h399l-199 507z" />
    <glyph glyph-name="Atilde.smcp" horiz-adv-x="1159" 
d="M453 1388c-56 0 -99 -49 -99 -112l-125 7c0 145 93 246 215 246c113 0 162 -96 268 -96c56 0 100 49 100 113l125 -12c0 -146 -95 -241 -216 -241c-136 0 -157 95 -268 95zM948 0l-109 280h-518l-111 -280h-190l479 1165h167l472 -1165h-190zM381 431h399l-199 507z" />
    <glyph glyph-name="AE.smcp" horiz-adv-x="1594" 
d="M973 149h549v-149h-730l-11 302h-409l-163 -302h-200l662 1165h809v-149h-538l12 -333h463v-149h-458zM453 452h323l-20 562z" />
    <glyph glyph-name="B.smcp" horiz-adv-x="1105" 
d="M794 608c141 -35 214 -150 214 -274c0 -221 -164 -334 -423 -334h-447v1165h407c264 0 431 -100 431 -317c0 -107 -66 -196 -182 -240zM545 1014h-220v-343h233c142 0 231 58 231 169c0 120 -86 174 -244 174zM585 150c152 0 236 70 236 185c0 117 -68 196 -227 196h-269
v-381h260z" />
    <glyph glyph-name="C.smcp" horiz-adv-x="1148" 
d="M1073 377c-25 -228 -179 -393 -481 -393c-301 0 -495 213 -495 547v102c0 334 195 548 506 548c291 0 445 -163 470 -398h-187c-21 155 -95 247 -283 247c-211 0 -321 -147 -321 -396v-103c0 -236 97 -397 310 -397c199 0 270 87 294 243h187z" />
    <glyph glyph-name="Ccedilla.smcp" horiz-adv-x="1148" 
d="M592 134c199 0 270 87 294 243h187c-23 -211 -157 -369 -417 -390l-10 -44c77 -13 153 -57 153 -173c0 -125 -105 -209 -304 -209l-7 106c92 0 166 29 166 99c0 68 -49 86 -161 95l29 127c-261 31 -425 236 -425 543v102c0 334 195 548 506 548c291 0 445 -163 470 -398
h-187c-21 155 -95 247 -283 247c-211 0 -321 -147 -321 -396v-103c0 -236 97 -397 310 -397z" />
    <glyph glyph-name="D.smcp" horiz-adv-x="1152" 
d="M499 1165c331 0 557 -216 557 -551v-64c0 -335 -224 -550 -569 -550h-349v1165h361zM870 550v66c0 255 -129 398 -371 398h-174v-864h162c257 0 383 153 383 400z" />
    <glyph glyph-name="Eth.smcp" horiz-adv-x="1152" 
d="M499 1165c331 0 557 -216 557 -551v-64c0 -335 -224 -550 -569 -550h-349v514h-206v150h206v501h361zM870 550v66c0 255 -129 398 -371 398h-174v-350h245v-150h-245v-364h162c257 0 383 153 383 400z" />
    <glyph glyph-name="E.smcp" horiz-adv-x="998" 
d="M325 150h618v-150h-805v1165h799v-151h-612v-336h531v-151h-531v-377z" />
    <glyph glyph-name="Eacute.smcp" horiz-adv-x="998" 
d="M863 1566l-269 -293h-150l194 293h225zM325 150h618v-150h-805v1165h799v-151h-612v-336h531v-151h-531v-377z" />
    <glyph glyph-name="Ecircumflex.smcp" horiz-adv-x="998" 
d="M537 1453l-149 -170h-153v11l246 272h112l248 -273v-10h-154zM325 150h618v-150h-805v1165h799v-151h-612v-336h531v-151h-531v-377z" />
    <glyph glyph-name="Edieresis.smcp" horiz-adv-x="998" 
d="M324 1298c-72 0 -110 46 -110 104c0 59 38 106 110 106s110 -47 110 -106c0 -58 -38 -104 -110 -104zM754 1296c-72 0 -109 46 -109 104c0 59 37 106 109 106s111 -47 111 -106c0 -58 -39 -104 -111 -104zM325 150h618v-150h-805v1165h799v-151h-612v-336h531v-151h-531
v-377z" />
    <glyph glyph-name="Egrave.smcp" horiz-adv-x="998" 
d="M626 1273h-160l-259 293h226zM325 150h618v-150h-805v1165h799v-151h-612v-336h531v-151h-531v-377z" />
    <glyph glyph-name="F.smcp" horiz-adv-x="971" 
d="M923 1014h-598v-362h518v-152h-518v-500h-187v1165h785v-151z" />
    <glyph glyph-name="G.smcp" horiz-adv-x="1196" 
d="M1078 150c-50 -64 -172 -166 -451 -166c-309 0 -528 205 -528 556v85c0 350 188 556 509 556c296 0 439 -154 470 -368h-185c-23 123 -100 217 -283 217c-219 0 -323 -150 -323 -403v-87c0 -258 134 -406 344 -406c164 0 229 45 261 75v239h-280v143h466v-441z" />
    <glyph glyph-name="H.smcp" horiz-adv-x="1252" 
d="M927 1165h186v-1165h-186v499h-602v-499h-187v1165h187v-515h602v515z" />
    <glyph glyph-name="I.smcp" horiz-adv-x="489" 
d="M338 0h-187v1165h187v-1165z" />
    <glyph glyph-name="Iacute.smcp" horiz-adv-x="489" 
d="M346 1566h225l-269 -293h-150zM338 0h-187v1165h187v-1165z" />
    <glyph glyph-name="Icircumflex.smcp" horiz-adv-x="489" 
d="M549 1293v-10h-154l-150 170l-149 -170h-153v11l246 272h112zM338 0h-187v1165h187v-1165z" />
    <glyph glyph-name="Idieresis.smcp" horiz-adv-x="489" 
d="M32 1508c72 0 110 -47 110 -106c0 -58 -38 -104 -110 -104s-110 46 -110 104c0 59 38 106 110 106zM462 1506c72 0 111 -47 111 -106c0 -58 -39 -104 -111 -104s-109 46 -109 104c0 59 37 106 109 106zM338 0h-187v1165h187v-1165z" />
    <glyph glyph-name="Igrave.smcp" horiz-adv-x="489" 
d="M334 1273h-160l-259 293h226zM338 0h-187v1165h187v-1165z" />
    <glyph glyph-name="J.smcp" horiz-adv-x="975" 
d="M658 1165h188v-826c0 -222 -165 -355 -389 -355c-236 0 -414 111 -414 347h188c0 -139 90 -197 226 -197c119 0 201 76 201 205v826z" />
    <glyph glyph-name="K.smcp" horiz-adv-x="1109" 
d="M885 0l-413 520l-147 -142v-378h-187v1165h187v-554l129 142l395 412h229l-478 -518l512 -647h-227z" />
    <glyph glyph-name="L.smcp" horiz-adv-x="949" 
d="M325 150h583v-150h-770v1165h187v-1015z" />
    <glyph glyph-name="M.smcp" horiz-adv-x="1538" 
d="M1400 1165v-1165h-186v403l19 528l-396 -931h-137l-395 927l19 -524v-403h-186v1165h242l389 -913l389 913h242z" />
    <glyph glyph-name="N.smcp" horiz-adv-x="1251" 
d="M1113 0h-186l-602 878v-878h-187v1165h187l602 -878v878h186v-1165z" />
    <glyph glyph-name="Ntilde.smcp" horiz-adv-x="1251" 
d="M979 1534c0 -146 -95 -241 -216 -241c-136 0 -157 95 -268 95c-56 0 -99 -49 -99 -112l-125 7c0 145 93 246 215 246c113 0 162 -96 268 -96c56 0 100 49 100 113zM1113 0h-186l-602 878v-878h-187v1165h187l602 -878v878h186v-1165z" />
    <glyph glyph-name="O.smcp" horiz-adv-x="1212" 
d="M1116 548c0 -351 -202 -564 -509 -564c-301 0 -511 213 -511 564v68c0 351 208 565 509 565c308 0 511 -214 511 -565v-68zM931 618c0 263 -121 409 -326 409c-197 0 -324 -146 -324 -409v-70c0 -264 129 -411 326 -411c206 0 324 147 324 411v70z" />
    <glyph glyph-name="Oacute.smcp" horiz-adv-x="1212" 
d="M708 1566h225l-269 -293h-150zM1116 548c0 -351 -202 -564 -509 -564c-301 0 -511 213 -511 564v68c0 351 208 565 509 565c308 0 511 -214 511 -565v-68zM931 618c0 263 -121 409 -326 409c-197 0 -324 -146 -324 -409v-70c0 -264 129 -411 326 -411
c206 0 324 147 324 411v70z" />
    <glyph glyph-name="Ocircumflex.smcp" horiz-adv-x="1212" 
d="M911 1293v-10h-154l-150 170l-149 -170h-153v11l246 272h112zM1116 548c0 -351 -202 -564 -509 -564c-301 0 -511 213 -511 564v68c0 351 208 565 509 565c308 0 511 -214 511 -565v-68zM931 618c0 263 -121 409 -326 409c-197 0 -324 -146 -324 -409v-70
c0 -264 129 -411 326 -411c206 0 324 147 324 411v70z" />
    <glyph glyph-name="Odieresis.smcp" horiz-adv-x="1212" 
d="M394 1508c72 0 110 -47 110 -106c0 -58 -38 -104 -110 -104s-110 46 -110 104c0 59 38 106 110 106zM824 1506c72 0 111 -47 111 -106c0 -58 -39 -104 -111 -104s-109 46 -109 104c0 59 37 106 109 106zM1116 548c0 -351 -202 -564 -509 -564c-301 0 -511 213 -511 564
v68c0 351 208 565 509 565c308 0 511 -214 511 -565v-68zM931 618c0 263 -121 409 -326 409c-197 0 -324 -146 -324 -409v-70c0 -264 129 -411 326 -411c206 0 324 147 324 411v70z" />
    <glyph glyph-name="Ograve.smcp" horiz-adv-x="1212" 
d="M696 1273h-160l-259 293h226zM1116 548c0 -351 -202 -564 -509 -564c-301 0 -511 213 -511 564v68c0 351 208 565 509 565c308 0 511 -214 511 -565v-68zM931 618c0 263 -121 409 -326 409c-197 0 -324 -146 -324 -409v-70c0 -264 129 -411 326 -411
c206 0 324 147 324 411v70z" />
    <glyph glyph-name="Oslash.smcp" horiz-adv-x="1212" 
d="M983 1022c85 -97 133 -235 133 -406v-68c0 -351 -202 -564 -509 -564c-102 0 -193 24 -269 70l-75 -112h-151l128 191c-91 97 -144 239 -144 415v68c0 351 208 565 509 565c109 0 205 -27 283 -77l69 103h150zM281 548c0 -108 21 -196 60 -263l456 683
c-51 39 -116 59 -192 59c-197 0 -324 -146 -324 -409v-70zM931 548v70c0 101 -18 184 -51 249l-452 -678c50 -34 110 -52 179 -52c206 0 324 147 324 411z" />
    <glyph glyph-name="Otilde.smcp" horiz-adv-x="1212" 
d="M962 1534c0 -146 -95 -241 -216 -241c-136 0 -157 95 -268 95c-56 0 -99 -49 -99 -112l-125 7c0 145 93 246 215 246c113 0 162 -96 268 -96c56 0 100 49 100 113zM1116 548c0 -351 -202 -564 -509 -564c-301 0 -511 213 -511 564v68c0 351 208 565 509 565
c308 0 511 -214 511 -565v-68zM931 618c0 263 -121 409 -326 409c-197 0 -324 -146 -324 -409v-70c0 -264 129 -411 326 -411c206 0 324 147 324 411v70z" />
    <glyph glyph-name="P.smcp" horiz-adv-x="1117" 
d="M606 1165c286 0 446 -153 446 -367c0 -224 -160 -359 -446 -359h-281v-439h-187v1165h468zM606 590c183 0 259 86 259 206c0 114 -76 218 -259 218h-281v-424h281z" />
    <glyph glyph-name="Thorn.smcp" horiz-adv-x="1017" 
d="M506 963c286 0 446 -154 446 -367c0 -224 -160 -360 -446 -360h-181v-236h-187v1165h187v-202h181zM506 388c183 0 259 86 259 206c0 114 -76 217 -259 217h-181v-423h181z" />
    <glyph glyph-name="Q.smcp" horiz-adv-x="1212" 
d="M1113 -93l-126 -110l-263 199c-38 -8 -80 -12 -123 -12c-301 0 -512 213 -512 564v68c0 351 209 565 510 565c308 0 511 -214 511 -565v-68c0 -221 -79 -387 -215 -480zM275 548c0 -264 128 -411 326 -411c206 0 324 147 324 411v70c0 263 -120 409 -326 409
c-198 0 -324 -146 -324 -409v-70z" />
    <glyph glyph-name="R.smcp" horiz-adv-x="1098" 
d="M775 493l287 -483v-10h-200l-260 450h-277v-450h-187v1165h426c283 0 445 -127 445 -355c0 -155 -88 -262 -234 -317zM325 1014v-414h244c168 0 253 87 253 203c0 125 -79 211 -258 211h-239z" />
    <glyph glyph-name="S.smcp" horiz-adv-x="1056" 
d="M531 505c-258 63 -424 163 -424 356c0 187 174 320 435 320c280 0 445 -161 445 -355h-187c0 119 -84 205 -260 205c-167 0 -246 -73 -246 -169c0 -91 80 -145 293 -198c259 -66 403 -173 403 -364c0 -195 -176 -316 -442 -316c-236 0 -481 119 -481 365h188
c0 -155 133 -216 293 -216c166 0 254 67 254 165c0 99 -55 155 -271 207z" />
    <glyph glyph-name="uni1E9E.smcp" horiz-adv-x="1105" 
d="M668 669c216 -19 350 -127 350 -313c0 -240 -164 -377 -396 -377c-75 0 -150 15 -223 51l53 151c42 -26 98 -51 170 -51c132 0 209 92 209 223c0 130 -92 183 -270 183h-84v136l236 296c-39 31 -92 63 -175 63c-166 0 -214 -128 -214 -280v-751h-186v753
c1 283 131 428 400 428c174 0 298 -82 403 -183z" />
    <glyph glyph-name="T.smcp" horiz-adv-x="1063" 
d="M1021 1165v-151h-398v-1014h-186v1014h-396v151h980z" />
    <glyph glyph-name="U.smcp" horiz-adv-x="1148" 
d="M1035 1165v-780c0 -266 -209 -401 -460 -401c-262 0 -459 135 -459 401v780h185v-780c0 -173 110 -251 274 -251c165 0 273 78 273 251v780h187z" />
    <glyph glyph-name="Uacute.smcp" horiz-adv-x="1148" 
d="M676 1566h225l-269 -293h-150zM1035 1165v-780c0 -266 -209 -401 -460 -401c-262 0 -459 135 -459 401v780h185v-780c0 -173 110 -251 274 -251c165 0 273 78 273 251v780h187z" />
    <glyph glyph-name="Ucircumflex.smcp" horiz-adv-x="1148" 
d="M879 1293v-10h-154l-150 170l-149 -170h-153v11l246 272h112zM1035 1165v-780c0 -266 -209 -401 -460 -401c-262 0 -459 135 -459 401v780h185v-780c0 -173 110 -251 274 -251c165 0 273 78 273 251v780h187z" />
    <glyph glyph-name="Udieresis.smcp" horiz-adv-x="1148" 
d="M362 1508c72 0 110 -47 110 -106c0 -58 -38 -104 -110 -104s-110 46 -110 104c0 59 38 106 110 106zM792 1506c72 0 111 -47 111 -106c0 -58 -39 -104 -111 -104s-109 46 -109 104c0 59 37 106 109 106zM1035 1165v-780c0 -266 -209 -401 -460 -401
c-262 0 -459 135 -459 401v780h185v-780c0 -173 110 -251 274 -251c165 0 273 78 273 251v780h187z" />
    <glyph glyph-name="Ugrave.smcp" horiz-adv-x="1148" 
d="M664 1273h-160l-259 293h226zM1035 1165v-780c0 -266 -209 -401 -460 -401c-262 0 -459 135 -459 401v780h185v-780c0 -173 110 -251 274 -251c165 0 273 78 273 251v780h187z" />
    <glyph glyph-name="V.smcp" horiz-adv-x="1129" 
d="M909 1165h200l-457 -1165h-175l-457 1165h201l317 -874l26 -94l26 92z" />
    <glyph glyph-name="W.smcp" horiz-adv-x="1557" 
d="M1336 1165h185l-298 -1165h-174l-260 918v3l-1 -3l-267 -918h-175l-297 1165h185l198 -870l11 -78l14 61l247 887h167l243 -890l13 -58l12 80z" />
    <glyph glyph-name="X.smcp" horiz-adv-x="1109" 
d="M552 729l286 436h222l-394 -577l409 -588h-223l-297 444l-295 -444h-221l405 588l-397 577h221z" />
    <glyph glyph-name="Y.smcp" horiz-adv-x="1067" 
d="M1053 1165l-430 -756v-409h-186v419l-423 746h209l310 -575l310 575h210z" />
    <glyph glyph-name="Yacute.smcp" horiz-adv-x="1067" 
d="M859 1566l-269 -293h-150l194 293h225zM1053 1165l-430 -756v-409h-186v419l-423 746h209l310 -575l310 575h210z" />
    <glyph glyph-name="Z.smcp" horiz-adv-x="1059" 
d="M303 150h690v-150h-921v123l665 891h-657v151h889v-119z" />
    <glyph glyph-name="ordfeminine" unicode="&#xaa;" horiz-adv-x="916" 
d="M784 706h-166c-7 23 -13 47 -17 72c-42 -46 -109 -86 -205 -86c-160 0 -249 89 -249 226c0 147 112 231 339 231h108v53c0 87 -40 135 -123 135c-92 0 -147 -37 -147 -106l-162 13c0 135 122 233 309 233c172 0 287 -93 287 -276v-314c0 -65 8 -123 26 -181zM435 828
c58 0 123 31 159 67v143h-107c-121 0 -176 -52 -176 -116c0 -58 39 -94 124 -94z" />
    <glyph glyph-name="ordmasculine" unicode="&#xba;" horiz-adv-x="932" 
d="M123 1124c0 206 132 353 342 353c212 0 343 -147 343 -353v-81c0 -206 -131 -352 -341 -352c-212 0 -344 146 -344 352v81zM287 1043c0 -122 57 -214 180 -214c119 0 177 92 177 214v81c0 120 -58 213 -179 213c-120 0 -178 -93 -178 -213v-81z" />
    <glyph glyph-name="alpha" unicode="&#x3b1;" horiz-adv-x="1158" 
d="M1121 149l23 -136c-42 -29 -81 -34 -124 -34c-92 0 -157 47 -185 163c-68 -104 -171 -163 -314 -163c-268 0 -421 217 -421 522v21c0 341 151 580 423 580c139 0 240 -57 309 -159l17 139h158v-787c0 -123 37 -151 80 -151c13 0 25 3 34 5zM567 129c129 0 204 77 253 184
v453c-49 107 -127 186 -251 186c-202 0 -282 -197 -282 -430v-21c0 -206 80 -372 280 -372z" />
    <glyph glyph-name="alpha.alt" horiz-adv-x="1220" 
d="M1114 0h-178l-38 240c-67 -165 -189 -261 -377 -261c-268 0 -421 217 -421 522v21c0 341 151 580 423 580c185 0 305 -93 372 -254l34 234h178l-106 -542zM849 521v37c-29 197 -109 394 -280 394c-202 0 -282 -197 -282 -430v-21c0 -206 80 -372 280 -372
c169 0 244 188 282 392z" />
    <glyph glyph-name="uni05F0" unicode="&#x5f0;" horiz-adv-x="1208" 
d="M237 0v1029h-137v149h323v-1178h-186zM841 0v1029h-137v149h323v-1178h-186z" />
    <glyph glyph-name="uni05F1" unicode="&#x5f1;" horiz-adv-x="1222" 
d="M237 0v1029h-137v149h323v-1178h-186zM875 521v508h-216v149h402v-657h-186z" />
    <glyph glyph-name="uni05F2" unicode="&#x5f2;" horiz-adv-x="1236" 
d="M271 521v508h-216v149h402v-657h-186zM889 521v508h-216v149h402v-657h-186z" />
    <glyph glyph-name="uniFB4F" unicode="&#xfb4f;" horiz-adv-x="1195" 
d="M1099 1178l-384 -673l360 -505h-205l-787 1100v401h185v-369l333 -467l289 513h209z" />
    <glyph glyph-name="uni05D0" unicode="&#x5d0;" horiz-adv-x="1314" 
d="M1218 1178l-378 -662l373 -516h-207l-525 725c-73 -47 -107 -122 -107 -231v-494h-180v427c0 203 67 331 214 399l-256 352h208l365 -504l284 504h209z" />
    <glyph glyph-name="uni05D1" unicode="&#x5d1;" horiz-adv-x="1079" 
d="M886 157l143 -15v-142h-968v150h640v589c0 204 -86 290 -291 290h-285v149h295c307 0 466 -150 466 -444v-577z" />
    <glyph glyph-name="uni05D2" unicode="&#x5d2;" horiz-adv-x="792" 
d="M67 -8c-15 0 -32 0 -47 3v171c20 -3 40 -4 58 -4c199 6 317 135 349 302v565h-266v149h449v-608c0 -58 7 -125 19 -180l82 -390h-175l-69 330h-7c-24 -178 -187 -338 -393 -338z" />
    <glyph glyph-name="uni05D3" unicode="&#x5d3;" horiz-adv-x="1067" 
d="M60 1178h943v-149h-197v-1029h-186v1029h-560v149z" />
    <glyph glyph-name="uni05D4" unicode="&#x5d4;" horiz-adv-x="1204" 
d="M866 0v739c0 204 -87 290 -291 290h-427v149h436c308 0 468 -150 468 -444v-734h-186zM150 0v402c0 137 28 198 52 249h152c-16 -60 -24 -129 -24 -237v-414h-180z" />
    <glyph glyph-name="uni05D5" unicode="&#x5d5;" horiz-adv-x="604" 
d="M237 0v1029h-137v149h323v-1178h-186z" />
    <glyph glyph-name="uni05D6" unicode="&#x5d6;" horiz-adv-x="724" 
d="M319 0l-160 1021l-83 14v143h572l-1 -149h-304l167 -1029h-191z" />
    <glyph glyph-name="uni05D7" unicode="&#x5d7;" horiz-adv-x="1243" 
d="M181 0l1 1178h443c312 0 464 -147 465 -451v-727h-185v738c0 204 -83 291 -278 291h-260l-1 -1029h-185z" />
    <glyph glyph-name="uni05D8" unicode="&#x5d8;" horiz-adv-x="1263" 
d="M652 -22c-282 0 -471 189 -471 473v727h185v-740c0 -187 114 -312 285 -312c170 0 284 125 284 312v395c0 128 -59 201 -163 201c-46 0 -96 -15 -144 -38l-29 124c66 42 151 69 227 69c183 0 295 -130 295 -341v-397c0 -284 -187 -473 -469 -473z" />
    <glyph glyph-name="uni05D9" unicode="&#x5d9;" horiz-adv-x="618" 
d="M271 521v508h-216v149h402v-657h-186z" />
    <glyph glyph-name="uni05DA" unicode="&#x5da;" horiz-adv-x="1014" 
d="M651 -416v1445h-586v149h769v-1594h-183z" />
    <glyph glyph-name="uni05DB" unicode="&#x5db;" horiz-adv-x="1101" 
d="M414 -17c-100 0 -212 18 -333 53l30 139c111 -30 207 -44 290 -43c218 4 334 115 334 315v582h-613v149h798v-691c0 -343 -196 -505 -506 -504z" />
    <glyph glyph-name="uni05DC" unicode="&#x5dc;" horiz-adv-x="1052" 
d="M978 1178v-117l-432 -1061h-199l427 1029h-691v507h185v-358h710z" />
    <glyph glyph-name="uni05DD" unicode="&#x5dd;" horiz-adv-x="1301" 
d="M180 0v1178h940v-1178h-940zM365 150h570v879h-570v-879z" />
    <glyph glyph-name="uni05DE" unicode="&#x5de;" horiz-adv-x="1299" 
d="M171 0l90 749c14 111 67 214 132 266c6 5 14 10 20 14l-2 3c-59 -10 -160 -36 -236 -62l-43 140c153 53 362 90 525 90c317 0 489 -171 490 -498v-702h-485v149h300v574c0 210 -98 321 -277 321c-129 0 -222 -106 -242 -277l-89 -767h-183z" />
    <glyph glyph-name="uni05DF" unicode="&#x5df;" horiz-adv-x="589" 
d="M225 -416v1445h-139v149h322v-1594h-183z" />
    <glyph glyph-name="uni05E0" unicode="&#x5e0;" horiz-adv-x="742" 
d="M251 -20c-69 0 -128 8 -191 22l5 145c40 -8 91 -13 146 -13c108 0 164 60 164 192v703h-231v149h417v-867c0 -217 -111 -331 -310 -331z" />
    <glyph glyph-name="uni05E1" unicode="&#x5e1;" horiz-adv-x="1305" 
d="M668 -22c-295 0 -495 216 -498 541v120c-1 156 71 317 167 382c4 3 8 6 14 8l-1 3c-51 -6 -137 -29 -211 -49l-36 140c156 46 370 77 535 77c329 0 528 -201 528 -540v-141c0 -325 -199 -541 -498 -541zM668 135c188 0 314 153 314 383v140c0 239 -125 386 -325 386
c-180 0 -296 -150 -301 -395v-131c0 -230 125 -383 312 -383z" />
    <glyph glyph-name="uni05E2" unicode="&#x5e2;" horiz-adv-x="1185" 
d="M819 1178h185v-706c0 -324 -214 -497 -524 -497c-123 0 -264 24 -419 83l45 138c117 -46 222 -70 313 -77c-44 52 -80 114 -99 200l-195 859h186l191 -869c16 -76 33 -132 61 -180c157 34 256 149 256 336v713z" />
    <glyph glyph-name="uni05E3" unicode="&#x5e3;" horiz-adv-x="1215" 
d="M1034 1178v-1594h-183v1445h-404c-43 -74 -72 -202 -72 -312v-136c31 -13 78 -18 157 -18v-160c-166 0 -243 16 -338 67l-3 197c-3 135 36 278 95 362h-143v149h891z" />
    <glyph glyph-name="uni05E4" unicode="&#x5e4;" horiz-adv-x="1284" 
d="M583 -20c-114 0 -256 23 -384 67l36 139c123 -37 250 -54 341 -54c218 2 342 113 342 315v582h-472c-43 -74 -71 -197 -71 -308v-90c30 -13 77 -18 156 -18v-160c-166 0 -243 16 -337 67l-4 152c0 134 36 273 95 357h-143v149h961v-696c0 -342 -217 -504 -520 -502z" />
    <glyph glyph-name="uni05E5" unicode="&#x5e5;" horiz-adv-x="1096" 
d="M689 540l24 -34c40 -58 57 -123 57 -209v-713h-175v730c0 54 -12 97 -38 135l-498 729h209l312 -477l263 477h209z" />
    <glyph glyph-name="uni05E6" unicode="&#x5e6;" horiz-adv-x="1119" 
d="M1052 1178l-361 -635l311 -449v-94h-872v150h633l-704 1028h209l314 -474l261 474h209z" />
    <glyph glyph-name="uni05E7" unicode="&#x5e7;" horiz-adv-x="1273" 
d="M577 0v146c197 6 329 129 329 336v547h-727v149h913v-692c0 -299 -205 -479 -515 -486zM202 -416v858c0 135 28 196 52 247h152c-17 -60 -24 -128 -24 -236v-869h-180z" />
    <glyph glyph-name="uni05E8" unicode="&#x5e8;" horiz-adv-x="1005" 
d="M667 0v822c0 128 -80 207 -211 207h-396v149h402c244 0 390 -137 390 -370v-808h-185z" />
    <glyph glyph-name="uni05E9" unicode="&#x5e9;" horiz-adv-x="1626" 
d="M361 1178v-969c127 -54 275 -87 404 -87c281 0 500 119 500 376v680h180v-697c0 -344 -306 -509 -671 -509c-192 0 -405 46 -593 136v1070h180zM644 325c50 53 75 147 75 267v586h181v-553c0 -135 -32 -235 -102 -306z" />
    <glyph glyph-name="uni05EA" unicode="&#x5ea;" horiz-adv-x="1279" 
d="M662 1178c312 0 465 -147 465 -451v-727h-185l-1 738c0 204 -83 291 -277 291h-167c-44 -72 -72 -194 -72 -312v-397c0 -217 -106 -330 -301 -330c-40 0 -75 4 -115 9v149c24 -3 47 -4 69 -4c117 0 166 58 166 187v372c0 118 33 252 90 326h-221v149h549z" />
    <glyph glyph-name="uniFB1F" unicode="&#xfb1f;" horiz-adv-x="1236" 
d="M271 521v508h-216v149h402v-657h-186zM889 521v508h-216v149h402v-657h-186zM167 -289v94h404v-94h-404z" />
    <glyph glyph-name="uniFB20" unicode="&#xfb20;" horiz-adv-x="1218" 
d="M853 1178h184l-35 -715c-16 -324 -212 -502 -522 -502c-123 0 -264 29 -419 87l45 139c127 -50 240 -75 337 -78c-47 52 -87 117 -108 210l-195 859h186l190 -869c17 -78 35 -135 65 -185c143 40 229 152 238 331z" />
    <glyph glyph-name="uniFB21" unicode="&#xfb21;" horiz-adv-x="1812" 
d="M1716 1178l-449 -795l417 -383h-256l-951 878c-47 -76 -74 -170 -74 -306v-572h-180v578c0 171 57 298 166 381l-237 219h248l733 -672l375 672h208z" />
    <glyph glyph-name="uniFB22" unicode="&#xfb22;" horiz-adv-x="1347" 
d="M60 1178h1223v-139l-238 -22v-1017h-185v1029h-800v149z" />
    <glyph glyph-name="uniFB23" unicode="&#xfb23;" horiz-adv-x="1631" 
d="M1293 0v822c0 128 -80 207 -209 207h-935v149h939c245 0 391 -137 391 -370v-808h-186zM148 0v396c0 118 24 192 39 235l166 24l8 -9c-15 -59 -30 -152 -30 -257v-389h-183z" />
    <glyph glyph-name="uniFB24" unicode="&#xfb24;" horiz-adv-x="1563" 
d="M685 -34c-169 0 -383 24 -604 71l28 149c219 -43 420 -65 569 -65c353 0 518 118 519 343v565h-1082v149h1267v-715c-1 -333 -253 -497 -697 -497z" />
    <glyph glyph-name="uniFB25" unicode="&#xfb25;" horiz-adv-x="1417" 
d="M1343 1178v-117l-616 -1061h-199l587 1029h-1032v472h185v-323h1075z" />
    <glyph glyph-name="uniFB26" unicode="&#xfb26;" horiz-adv-x="1764" 
d="M114 0v1178h1500v-1178h-1500zM299 150h1130v879h-1130v-879z" />
    <glyph glyph-name="uniFB27" unicode="&#xfb27;" horiz-adv-x="1435" 
d="M1097 0v822c0 128 -79 207 -210 207h-827v149h831c246 0 391 -137 391 -370v-808h-185z" />
    <glyph glyph-name="uniFB28" unicode="&#xfb28;" horiz-adv-x="1755" 
d="M1139 1178c311 0 464 -147 464 -451v-727h-185l-1 738c0 204 -83 291 -277 291h-643c-44 -72 -72 -194 -72 -312v-397c0 -217 -106 -330 -301 -330c-40 0 -75 4 -115 9v149c24 -3 47 -4 69 -4c117 0 166 58 166 187v372c0 118 33 252 90 326h-221v149h1026z" />
    <glyph glyph-name="uniFB2A" unicode="&#xfb2a;" horiz-adv-x="1626" 
d="M1349 1331c-45 0 -79 34 -79 72c0 42 34 73 79 73c44 0 78 -31 78 -73s-34 -72 -78 -72zM361 1178v-969c127 -54 275 -87 404 -87c281 0 500 119 500 376v680h180v-697c0 -344 -306 -509 -671 -509c-192 0 -405 46 -593 136v1070h180zM644 325c50 53 75 147 75 267v586
h181v-553c0 -135 -32 -235 -102 -306z" />
    <glyph glyph-name="uniFB2B" unicode="&#xfb2b;" horiz-adv-x="1626" 
d="M264 1331c-44 0 -78 34 -78 72c0 42 34 73 78 73c45 0 79 -31 79 -73s-34 -72 -79 -72zM361 1178v-969c127 -54 275 -87 404 -87c281 0 500 119 500 376v680h180v-697c0 -344 -306 -509 -671 -509c-192 0 -405 46 -593 136v1070h180zM644 325c50 53 75 147 75 267v586
h181v-553c0 -135 -32 -235 -102 -306z" />
    <glyph glyph-name="uniFB2C" unicode="&#xfb2c;" horiz-adv-x="1626" 
d="M1349 1331c-45 0 -79 34 -79 72c0 42 34 73 79 73c44 0 78 -31 78 -73s-34 -72 -78 -72zM361 1178v-969c127 -54 275 -87 404 -87c281 0 500 119 500 376v680h180v-697c0 -344 -306 -509 -671 -509c-192 0 -405 46 -593 136v1070h180zM644 325c50 53 75 147 75 267v586
h181v-553c0 -135 -32 -235 -102 -306zM1082 529c-44 0 -78 35 -78 74c0 41 34 73 78 73c45 0 79 -32 79 -73c0 -42 -34 -74 -79 -74z" />
    <glyph glyph-name="uniFB2D" unicode="&#xfb2d;" horiz-adv-x="1626" 
d="M264 1331c-44 0 -78 34 -78 72c0 42 34 73 78 73c45 0 79 -31 79 -73s-34 -72 -79 -72zM361 1178v-969c127 -54 275 -87 404 -87c281 0 500 119 500 376v680h180v-697c0 -344 -306 -509 -671 -509c-192 0 -405 46 -593 136v1070h180zM644 325c50 53 75 147 75 267v586
h181v-553c0 -135 -32 -235 -102 -306zM1082 529c-44 0 -78 35 -78 74c0 41 34 73 78 73c45 0 79 -32 79 -73c0 -42 -34 -74 -79 -74z" />
    <glyph glyph-name="uniFB2E" unicode="&#xfb2e;" horiz-adv-x="1314" 
d="M1218 1178l-378 -662l373 -516h-207l-525 725c-73 -47 -107 -122 -107 -231v-494h-180v427c0 203 67 331 214 399l-256 352h208l365 -504l284 504h209zM478 -289v94h404v-94h-404z" />
    <glyph glyph-name="uniFB2F" unicode="&#xfb2f;" horiz-adv-x="1314" 
d="M1218 1178l-378 -662l373 -516h-207l-525 725c-73 -47 -107 -122 -107 -231v-494h-180v427c0 203 67 331 214 399l-256 352h208l365 -504l284 504h209zM492 -289v94h377v-94h-155c8 -119 47 -123 47 -173c0 -41 -34 -73 -78 -73c-45 0 -79 35 -79 73c0 50 40 54 47 173
h-159z" />
    <glyph glyph-name="uniFB30" unicode="&#xfb30;" horiz-adv-x="1314" 
d="M1218 1178l-378 -662l373 -516h-207l-525 725c-73 -47 -107 -122 -107 -231v-494h-180v427c0 203 67 331 214 399l-256 352h208l365 -504l284 504h209zM583 295c45 0 79 -32 79 -73c0 -42 -34 -74 -79 -74c-44 0 -78 35 -78 74c0 41 34 73 78 73z" />
    <glyph glyph-name="uniFB31" unicode="&#xfb31;" horiz-adv-x="1079" 
d="M886 157l143 -15v-142h-968v150h640v589c0 204 -86 290 -291 290h-285v149h295c307 0 466 -150 466 -444v-577zM460 603c0 -42 -34 -74 -79 -74c-44 0 -78 35 -78 74c0 41 34 73 78 73c45 0 79 -32 79 -73z" />
    <glyph glyph-name="uniFB32" unicode="&#xfb32;" horiz-adv-x="792" 
d="M67 -8c-15 0 -32 0 -47 3v171c20 -3 40 -4 58 -4c199 6 317 135 349 302v565h-266v149h449v-608c0 -58 7 -125 19 -180l82 -390h-175l-69 330h-7c-24 -178 -187 -338 -393 -338zM201 529c-44 0 -78 35 -78 74c0 41 34 73 78 73c45 0 79 -32 79 -73c0 -42 -34 -74 -79 -74
z" />
    <glyph glyph-name="uniFB33" unicode="&#xfb33;" horiz-adv-x="1067" 
d="M60 1178h943v-149h-197v-1029h-186v1029h-560v149zM322 529c-44 0 -78 35 -78 74c0 41 34 73 78 73c45 0 79 -32 79 -73c0 -42 -34 -74 -79 -74z" />
    <glyph glyph-name="uniFB34" unicode="&#xfb34;" horiz-adv-x="1204" 
d="M866 0v739c0 204 -87 290 -291 290h-427v149h436c308 0 468 -150 468 -444v-734h-186zM599 529c-44 0 -78 35 -78 74c0 41 34 73 78 73c45 0 79 -32 79 -73c0 -42 -34 -74 -79 -74zM150 0v402c0 137 28 198 52 249h152c-16 -60 -24 -129 -24 -237v-414h-180z" />
    <glyph glyph-name="uniFB35" unicode="&#xfb35;" horiz-adv-x="604" 
d="M237 0v1029h-137v149h323v-1178h-186zM71 529c-44 0 -78 35 -78 74c0 41 34 73 78 73c45 0 79 -32 79 -73c0 -42 -34 -74 -79 -74z" />
    <glyph glyph-name="uniFB36" unicode="&#xfb36;" horiz-adv-x="724" 
d="M319 0l-160 1021l-83 14v143h572l-1 -149h-304l167 -1029h-191zM565 529c-44 0 -78 35 -78 74c0 41 34 73 78 73c45 0 79 -32 79 -73c0 -42 -34 -74 -79 -74z" />
    <glyph glyph-name="uniFB38" unicode="&#xfb38;" horiz-adv-x="1263" 
d="M652 -22c-282 0 -471 189 -471 473v727h185v-740c0 -187 114 -312 285 -312c170 0 284 125 284 312v395c0 128 -59 201 -163 201c-46 0 -96 -15 -144 -38l-29 124c66 42 151 69 227 69c183 0 295 -130 295 -341v-397c0 -284 -187 -473 -469 -473zM652 529
c-44 0 -78 35 -78 74c0 41 34 73 78 73c45 0 79 -32 79 -73c0 -42 -34 -74 -79 -74z" />
    <glyph glyph-name="uniFB39" unicode="&#xfb39;" horiz-adv-x="618" 
d="M271 521v508h-216v149h402v-657h-186zM92 716c-44 0 -78 35 -78 74c0 41 34 73 78 73c45 0 79 -32 79 -73c0 -42 -34 -74 -79 -74z" />
    <glyph glyph-name="uniFB3A" unicode="&#xfb3a;" horiz-adv-x="1014" 
d="M651 -416v1445h-586v149h769v-1594h-183zM329 529c-44 0 -78 35 -78 74c0 41 34 73 78 73c45 0 79 -32 79 -73c0 -42 -34 -74 -79 -74z" />
    <glyph glyph-name="uniFB3B" unicode="&#xfb3b;" horiz-adv-x="1101" 
d="M414 -17c-100 0 -212 18 -333 53l30 139c111 -30 207 -44 290 -43c218 4 334 115 334 315v582h-613v149h798v-691c0 -343 -196 -505 -506 -504zM409 529c-44 0 -78 35 -78 74c0 41 34 73 78 73c45 0 79 -32 79 -73c0 -42 -34 -74 -79 -74z" />
    <glyph glyph-name="uniFB3C" unicode="&#xfb3c;" horiz-adv-x="1052" 
d="M978 1178v-117l-432 -1061h-199l427 1029h-691v507h185v-358h710zM389 678c0 -42 -34 -74 -79 -74c-44 0 -78 35 -78 74c0 41 34 73 78 73c45 0 79 -32 79 -73z" />
    <glyph glyph-name="uniFB3E" unicode="&#xfb3e;" horiz-adv-x="1299" 
d="M171 0l90 749c14 111 67 214 132 266c6 5 14 10 20 14l-2 3c-59 -10 -160 -36 -236 -62l-43 140c153 53 362 90 525 90c317 0 489 -171 490 -498v-702h-485v149h300v574c0 210 -98 321 -277 321c-129 0 -222 -106 -242 -277l-89 -767h-183zM688 529c-44 0 -78 35 -78 74
c0 41 34 73 78 73c45 0 79 -32 79 -73c0 -42 -34 -74 -79 -74z" />
    <glyph glyph-name="uniFB40" unicode="&#xfb40;" horiz-adv-x="742" 
d="M251 -20c-69 0 -128 8 -191 22l5 145c40 -8 91 -13 146 -13c108 0 164 60 164 192v703h-231v149h417v-867c0 -217 -111 -331 -310 -331zM172 529c-44 0 -78 35 -78 74c0 41 34 73 78 73c45 0 79 -32 79 -73c0 -42 -34 -74 -79 -74z" />
    <glyph glyph-name="uniFB41" unicode="&#xfb41;" horiz-adv-x="1305" 
d="M668 -22c-295 0 -495 216 -498 541v120c-1 156 71 317 167 382c4 3 8 6 14 8l-1 3c-51 -6 -137 -29 -211 -49l-36 140c156 46 370 77 535 77c329 0 528 -201 528 -540v-141c0 -325 -199 -541 -498 -541zM668 135c188 0 314 153 314 383v140c0 239 -125 386 -325 386
c-180 0 -296 -150 -301 -395v-131c0 -230 125 -383 312 -383zM669 529c-44 0 -78 35 -78 74c0 41 34 73 78 73c45 0 79 -32 79 -73c0 -42 -34 -74 -79 -74z" />
    <glyph glyph-name="uniFB43" unicode="&#xfb43;" horiz-adv-x="1215" 
d="M1034 1178v-1594h-183v1445h-404c-43 -74 -72 -202 -72 -312v-136c31 -13 78 -18 157 -18v-160c-166 0 -243 16 -338 67l-3 197c-3 135 36 278 95 362h-143v149h891zM617 706c-44 0 -78 35 -78 74c0 41 34 73 78 73c45 0 79 -32 79 -73c0 -42 -34 -74 -79 -74z" />
    <glyph glyph-name="uniFB44" unicode="&#xfb44;" horiz-adv-x="1284" 
d="M583 -20c-114 0 -256 23 -384 67l36 139c123 -37 250 -54 341 -54c218 2 342 113 342 315v582h-472c-43 -74 -71 -197 -71 -308v-90c30 -13 77 -18 156 -18v-160c-166 0 -243 16 -337 67l-4 152c0 134 36 273 95 357h-143v149h961v-696c0 -342 -217 -504 -520 -502z
M650 719c-44 0 -78 35 -78 74c0 41 34 73 78 73c45 0 79 -32 79 -73c0 -42 -34 -74 -79 -74z" />
    <glyph glyph-name="uniFB46" unicode="&#xfb46;" horiz-adv-x="1119" 
d="M1052 1178l-361 -635l311 -449v-94h-872v150h633l-704 1028h209l314 -474l261 474h209zM402 361c0 -42 -34 -74 -79 -74c-44 0 -78 35 -78 74c0 41 34 73 78 73c45 0 79 -32 79 -73z" />
    <glyph glyph-name="uniFB47" unicode="&#xfb47;" horiz-adv-x="1273" 
d="M577 0v146c197 6 329 129 329 336v547h-727v149h913v-692c0 -299 -205 -479 -515 -486zM202 -416v858c0 135 28 196 52 247h152c-17 -60 -24 -128 -24 -236v-869h-180zM638 529c-44 0 -78 35 -78 74c0 41 34 73 78 73c45 0 79 -32 79 -73c0 -42 -34 -74 -79 -74z" />
    <glyph glyph-name="uniFB48" unicode="&#xfb48;" horiz-adv-x="1005" 
d="M667 0v822c0 128 -80 207 -211 207h-396v149h402c244 0 390 -137 390 -370v-808h-185zM341 529c-44 0 -78 35 -78 74c0 41 34 73 78 73c45 0 79 -32 79 -73c0 -42 -34 -74 -79 -74z" />
    <glyph glyph-name="uniFB49" unicode="&#xfb49;" horiz-adv-x="1626" 
d="M361 1178v-969c127 -54 275 -87 404 -87c281 0 500 119 500 376v680h180v-697c0 -344 -306 -509 -671 -509c-192 0 -405 46 -593 136v1070h180zM644 325c50 53 75 147 75 267v586h181v-553c0 -135 -32 -235 -102 -306zM1082 529c-44 0 -78 35 -78 74c0 41 34 73 78 73
c45 0 79 -32 79 -73c0 -42 -34 -74 -79 -74z" />
    <glyph glyph-name="uniFB4A" unicode="&#xfb4a;" horiz-adv-x="1279" 
d="M662 1178c312 0 465 -147 465 -451v-727h-185l-1 738c0 204 -83 291 -277 291h-167c-44 -72 -72 -194 -72 -312v-397c0 -217 -106 -330 -301 -330c-40 0 -75 4 -115 9v149c24 -3 47 -4 69 -4c117 0 166 58 166 187v372c0 118 33 252 90 326h-221v149h549zM683 529
c-44 0 -78 35 -78 74c0 41 34 73 78 73c45 0 79 -32 79 -73c0 -42 -34 -74 -79 -74z" />
    <glyph glyph-name="uniFB4B" unicode="&#xfb4b;" horiz-adv-x="604" 
d="M263 1331c-45 0 -79 34 -79 72c0 42 34 73 79 73s79 -31 79 -73s-34 -72 -79 -72zM237 0v1029h-137v149h323v-1178h-186z" />
    <glyph glyph-name="uniFB4C" unicode="&#xfb4c;" horiz-adv-x="1079" 
d="M726 1464v-107h-487v107h487zM886 157l143 -15v-142h-968v150h640v589c0 204 -86 290 -291 290h-285v149h295c307 0 466 -150 466 -444v-577z" />
    <glyph glyph-name="uniFB4D" unicode="&#xfb4d;" horiz-adv-x="1101" 
d="M234 1357v107h487v-107h-487zM414 -17c-100 0 -212 18 -333 53l30 139c111 -30 207 -44 290 -43c218 4 334 115 334 315v582h-613v149h798v-691c0 -343 -196 -505 -506 -504z" />
    <glyph glyph-name="uniFB4E" unicode="&#xfb4e;" horiz-adv-x="1284" 
d="M402 1357v107h487v-107h-487zM583 -20c-114 0 -256 23 -384 67l36 139c123 -37 250 -54 341 -54c218 2 342 113 342 315v582h-472c-43 -74 -71 -197 -71 -308v-90c30 -13 77 -18 156 -18v-160c-166 0 -243 16 -337 67l-4 152c0 134 36 273 95 357h-143v149h961v-696
c0 -342 -217 -504 -520 -502z" />
    <glyph glyph-name="uni05D2.001" horiz-adv-x="792" 
d="M67 -8c-15 0 -32 0 -47 3v171c20 -3 40 -4 58 -4c199 6 317 135 349 302v565h-266v149h449v-608c0 -58 7 -125 19 -180l82 -390h-175l-69 330h-7c-24 -178 -187 -338 -393 -338z" />
    <glyph glyph-name="uni05E8.001" horiz-adv-x="1002" 
d="M680 0v822c0 128 -79 207 -210 207h-396v149h401c245 0 391 -137 391 -370v-808h-186z" />
    <glyph glyph-name="uni05E8.002" horiz-adv-x="1002" 
d="M680 0v822c0 128 -79 207 -210 207h-396v149h401c245 0 391 -137 391 -370v-808h-186z" />
    <glyph glyph-name="uni05E8.003" horiz-adv-x="1002" 
d="M680 0v822c0 128 -79 207 -210 207h-396v149h401c245 0 391 -137 391 -370v-808h-186z" />
    <glyph glyph-name="uni05E8.004" horiz-adv-x="1002" 
d="M680 0v822c0 128 -79 207 -210 207h-396v149h401c245 0 391 -137 391 -370v-808h-186z" />
    <glyph glyph-name="zero" unicode="0" horiz-adv-x="1151" 
d="M1035 621c0 -475 -176 -641 -458 -641c-279 0 -462 166 -462 641v223c0 475 180 632 460 632c281 0 460 -157 460 -632v-223zM848 875c0 328 -95 451 -273 451c-176 0 -273 -123 -273 -451v-283c0 -326 99 -462 275 -462c179 0 271 136 271 462v283z" />
    <glyph glyph-name="one" unicode="1" horiz-adv-x="1151" 
d="M730 0h-187v1235l-372 -137v167l530 199h29v-1464z" />
    <glyph glyph-name="two" unicode="2" horiz-adv-x="1151" 
d="M1076 0h-955v132l477 531c177 196 224 288 224 402c0 144 -91 261 -252 261c-196 0 -290 -123 -290 -298h-187c0 246 165 448 477 448c274 0 439 -156 439 -389c0 -172 -124 -350 -273 -512l-390 -425h730v-150z" />
    <glyph glyph-name="three" unicode="3" horiz-adv-x="1151" 
d="M768 748c193 -62 250 -209 250 -342c0 -272 -199 -426 -461 -426c-254 0 -462 146 -462 405h187c0 -153 105 -255 275 -255c169 0 274 90 274 272s-121 266 -308 266h-132v150h132c192 0 286 107 286 251c0 166 -83 257 -253 257c-156 0 -262 -98 -262 -251h-187
c0 223 179 401 449 401c263 0 440 -141 440 -411c0 -108 -69 -249 -228 -317z" />
    <glyph glyph-name="four" unicode="4" horiz-adv-x="1151" 
d="M1105 489v-150h-202v-339h-187v339h-663v108l651 1009h199v-967h202zM264 489h452v716l-22 -40z" />
    <glyph glyph-name="five" unicode="5" horiz-adv-x="1151" 
d="M206 731l74 725h747v-169h-589l-43 -399c52 31 135 63 242 63c268 0 433 -190 433 -487c0 -279 -150 -484 -461 -484c-236 0 -430 131 -455 403h177c23 -166 122 -253 278 -253c174 0 274 128 274 332c0 183 -103 324 -290 324c-124 0 -171 -35 -237 -93z" />
    <glyph glyph-name="six" unicode="6" horiz-adv-x="1151" 
d="M636 955c290 0 417 -240 417 -480c0 -276 -156 -495 -452 -495c-315 0 -468 287 -468 558v88c0 412 134 832 698 832h16v-156h-16c-355 0 -486 -230 -508 -478c80 91 191 131 313 131zM601 132c171 0 268 139 268 334c0 174 -85 337 -264 337c-130 0 -244 -88 -285 -201
v-69c0 -260 136 -401 281 -401z" />
    <glyph glyph-name="seven" unicode="7" horiz-adv-x="1151" 
d="M1063 1353l-603 -1353h-196l601 1306h-787v150h985v-103z" />
    <glyph glyph-name="eight" unicode="8" horiz-adv-x="1151" 
d="M791 750c151 -64 248 -195 248 -356c0 -266 -202 -414 -463 -414c-262 0 -463 148 -463 414c0 162 94 293 244 357c-130 62 -211 182 -211 326c0 254 181 399 430 399c248 0 429 -145 429 -399c0 -144 -84 -264 -214 -327zM576 1326c-145 0 -243 -98 -243 -252
c0 -151 97 -249 243 -249c145 0 242 98 242 249c0 145 -98 252 -242 252zM576 130c171 0 276 100 276 268c0 162 -113 276 -278 276c-168 0 -274 -114 -274 -276c0 -168 105 -268 276 -268z" />
    <glyph glyph-name="nine" unicode="9" horiz-adv-x="1151" 
d="M552 1476c334 0 465 -293 465 -588v-69c0 -379 -87 -821 -693 -821h-19v156h19c401 0 496 234 506 486c-77 -91 -187 -153 -314 -153c-289 0 -416 248 -416 486c0 277 155 503 452 503zM546 639c127 0 237 88 285 201v72c0 266 -132 412 -279 412
c-171 0 -269 -147 -269 -341c0 -173 85 -344 263 -344z" />
    <glyph glyph-name="zero.frac" 
d="M670 989c0 -229 -117 -336 -293 -336c-178 0 -297 107 -297 336v139c0 228 118 336 295 336s295 -108 295 -336v-139zM512 1142c0 133 -49 194 -137 194c-87 0 -136 -61 -136 -194v-166c0 -135 50 -196 138 -196c87 0 135 61 135 196v166z" />
    <glyph glyph-name="four.frac" 
d="M700 963v-129h-107v-170h-159v170h-373l-7 101l377 518h162v-490h107zM213 963h221v287l-15 -25z" />
    <glyph glyph-name="five.frac" 
d="M112 1052l50 401h479v-130h-348l-23 -172c25 11 78 29 139 29c170 0 271 -96 271 -258c0 -143 -93 -269 -294 -269c-149 0 -287 82 -295 227h156c8 -69 61 -100 139 -100c96 0 135 62 135 144c0 83 -53 140 -150 140c-73 0 -103 -22 -132 -43z" />
    <glyph glyph-name="six.frac" 
d="M431 1188c169 0 253 -116 253 -264c0 -154 -112 -271 -292 -271c-188 0 -306 121 -306 313v56c0 277 154 441 445 441h22v-130h-11c-179 0 -280 -72 -296 -221c42 43 105 76 185 76zM389 780c84 0 137 62 137 143c0 82 -48 138 -138 138c-67 0 -121 -33 -144 -75v-35
c0 -113 61 -171 145 -171z" />
    <glyph glyph-name="seven.frac" 
d="M678 1364l-349 -700h-167l349 661h-452v128h619v-89z" />
    <glyph glyph-name="eight.frac" 
d="M533 1070c85 -35 139 -102 139 -190c0 -150 -128 -227 -296 -227s-297 77 -297 227c0 88 54 155 139 190c-74 35 -119 96 -119 174c0 142 115 220 276 220c160 0 277 -78 277 -220c0 -78 -45 -139 -119 -174zM375 1337c-73 0 -118 -39 -118 -102c0 -62 45 -103 119 -103
c73 0 118 41 118 103c0 61 -46 102 -119 102zM376 780c82 0 138 42 138 112c0 69 -57 111 -139 111c-83 0 -137 -42 -137 -111c0 -70 54 -112 138 -112z" />
    <glyph glyph-name="nine.frac" 
d="M366 1464c186 0 296 -120 296 -322v-52c0 -278 -137 -433 -438 -433h-15v126h14c180 0 265 65 279 201c-41 -39 -100 -65 -170 -65c-169 0 -259 109 -259 264c0 153 113 281 293 281zM368 1040c66 0 114 33 136 71v60c0 111 -59 165 -138 165c-84 0 -135 -70 -135 -153
c0 -80 46 -143 137 -143z" />
    <glyph glyph-name="zero.sup" 
d="M670 325c0 -229 -117 -336 -293 -336c-178 0 -297 107 -297 336v139c0 228 118 336 295 336s295 -108 295 -336v-139zM512 478c0 133 -49 194 -137 194c-87 0 -136 -61 -136 -194v-166c0 -135 50 -196 138 -196c87 0 135 61 135 196v166z" />
    <glyph glyph-name="one.sup" 
d="M496 0h-158v603l-215 -58v128l355 116h18v-789z" />
    <glyph glyph-name="two.sup" 
d="M684 0h-600v108l289 271c89 83 120 139 120 183c0 65 -44 111 -123 111c-100 0 -145 -58 -145 -134h-159c0 143 112 261 300 261c179 0 286 -91 286 -236c0 -106 -74 -184 -191 -290l-175 -147h398v-127z" />
    <glyph glyph-name="three.sup" 
d="M517 405c103 -28 150 -92 150 -185c0 -147 -132 -231 -306 -231c-151 0 -298 71 -298 233h158c0 -60 58 -106 145 -106c93 0 142 45 142 112c0 84 -60 116 -158 116h-85v115h85c97 0 145 45 145 110c0 59 -40 104 -132 104c-75 0 -131 -36 -131 -94h-159
c0 136 127 221 287 221c174 0 293 -78 293 -224c0 -73 -48 -138 -136 -171z" />
    <glyph glyph-name="four.sup" 
d="M700 299v-129h-107v-170h-159v170h-373l-7 101l377 518h162v-490h107zM213 299h221v287l-15 -25z" />
    <glyph glyph-name="five.sup" 
d="M112 388l50 401h479v-130h-348l-23 -172c25 11 78 29 139 29c170 0 271 -96 271 -258c0 -143 -93 -269 -294 -269c-149 0 -287 82 -295 227h156c8 -69 61 -100 139 -100c96 0 135 62 135 144c0 83 -53 140 -150 140c-73 0 -103 -22 -132 -43z" />
    <glyph glyph-name="six.sup" 
d="M431 524c169 0 253 -116 253 -264c0 -154 -112 -271 -292 -271c-188 0 -306 121 -306 313v56c0 277 154 441 445 441h22v-130h-11c-179 0 -280 -72 -296 -221c42 43 105 76 185 76zM389 116c84 0 137 62 137 143c0 82 -48 138 -138 138c-67 0 -121 -33 -144 -75v-35
c0 -113 61 -171 145 -171z" />
    <glyph glyph-name="seven.sup" 
d="M678 700l-349 -700h-167l349 661h-452v128h619v-89z" />
    <glyph glyph-name="eight.sup" 
d="M533 406c85 -35 139 -102 139 -190c0 -150 -128 -227 -296 -227s-297 77 -297 227c0 88 54 155 139 190c-74 35 -119 96 -119 174c0 142 115 220 276 220c160 0 277 -78 277 -220c0 -78 -45 -139 -119 -174zM375 673c-73 0 -118 -39 -118 -102c0 -62 45 -103 119 -103
c73 0 118 41 118 103c0 61 -46 102 -119 102zM376 116c82 0 138 42 138 112c0 69 -57 111 -139 111c-83 0 -137 -42 -137 -111c0 -70 54 -112 138 -112z" />
    <glyph glyph-name="nine.sup" 
d="M366 800c186 0 296 -120 296 -322v-52c0 -278 -137 -433 -438 -433h-15v126h14c180 0 265 65 279 201c-41 -39 -100 -65 -170 -65c-169 0 -259 109 -259 264c0 153 113 281 293 281zM368 376c66 0 114 33 136 71v60c0 111 -59 165 -138 165c-84 0 -135 -70 -135 -153
c0 -80 46 -143 137 -143z" />
    <glyph glyph-name="zero.tnum" horiz-adv-x="1280" 
 />
    <glyph glyph-name="one.tnum" horiz-adv-x="981" 
 />
    <glyph glyph-name="two.tnum" horiz-adv-x="1154" 
 />
    <glyph glyph-name="three.tnum" horiz-adv-x="1112" 
 />
    <glyph glyph-name="four.tnum" horiz-adv-x="1231" 
 />
    <glyph glyph-name="five.tnum" horiz-adv-x="1131" 
 />
    <glyph glyph-name="six.tnum" horiz-adv-x="1151" 
d="M629 955c290 0 417 -240 417 -480c0 -276 -156 -495 -452 -495c-315 0 -468 287 -468 558v88c0 412 134 832 698 832h16v-156h-16c-355 0 -486 -230 -508 -478c80 91 191 131 313 131zM594 132c171 0 268 139 268 334c0 174 -85 337 -264 337c-130 0 -244 -88 -285 -201
v-69c0 -260 136 -401 281 -401z" />
    <glyph glyph-name="seven.tnum" horiz-adv-x="1070" 
 />
    <glyph glyph-name="eight.tnum" horiz-adv-x="1151" 
d="M791 750c151 -64 248 -195 248 -356c0 -266 -202 -414 -463 -414c-262 0 -463 148 -463 414c0 162 94 293 244 357c-130 62 -211 182 -211 326c0 254 181 399 430 399c248 0 429 -145 429 -399c0 -144 -84 -264 -214 -327zM576 1326c-145 0 -243 -98 -243 -252
c0 -151 97 -249 243 -249c145 0 242 98 242 249c0 145 -98 252 -242 252zM576 130c171 0 276 100 276 268c0 162 -113 276 -278 276c-168 0 -274 -114 -274 -276c0 -168 105 -268 276 -268z" />
    <glyph glyph-name="nine.tnum" horiz-adv-x="1210" 
 />
    <glyph glyph-name="uni2080" unicode="&#x2080;" 
d="M670 -43c0 -229 -117 -336 -293 -336c-178 0 -297 107 -297 336v139c0 228 118 336 295 336s295 -108 295 -336v-139zM512 110c0 133 -49 194 -137 194c-87 0 -136 -61 -136 -194v-166c0 -135 50 -196 138 -196c87 0 135 61 135 196v166z" />
    <glyph glyph-name="uni2081" unicode="&#x2081;" 
d="M496 -367h-158v603l-215 -58v128l355 116h18v-789z" />
    <glyph glyph-name="uni2082" unicode="&#x2082;" 
d="M684 -367h-600v108l289 271c89 83 120 139 120 183c0 65 -44 111 -123 111c-100 0 -145 -58 -145 -134h-159c0 143 112 261 300 261c179 0 286 -91 286 -236c0 -106 -74 -184 -191 -290l-175 -147h398v-127z" />
    <glyph glyph-name="uni2083" unicode="&#x2083;" 
d="M517 38c103 -28 150 -92 150 -185c0 -147 -132 -231 -306 -231c-151 0 -298 71 -298 233h158c0 -60 58 -106 145 -106c93 0 142 45 142 112c0 84 -60 116 -158 116h-85v115h85c97 0 145 45 145 110c0 59 -40 104 -132 104c-75 0 -131 -36 -131 -94h-159
c0 136 127 221 287 221c174 0 293 -78 293 -224c0 -73 -48 -138 -136 -171z" />
    <glyph glyph-name="uni2084" unicode="&#x2084;" 
d="M700 -68v-129h-107v-170h-159v170h-373l-7 101l377 518h162v-490h107zM213 -68h221v287l-15 -25z" />
    <glyph glyph-name="uni2085" unicode="&#x2085;" 
d="M112 21l50 401h479v-130h-348l-23 -172c25 11 78 29 139 29c170 0 271 -96 271 -258c0 -143 -93 -269 -294 -269c-149 0 -287 82 -295 227h156c8 -69 61 -100 139 -100c96 0 135 62 135 144c0 83 -53 140 -150 140c-73 0 -103 -22 -132 -43z" />
    <glyph glyph-name="uni2086" unicode="&#x2086;" 
d="M431 157c169 0 253 -116 253 -264c0 -154 -112 -271 -292 -271c-188 0 -306 121 -306 313v56c0 277 154 441 445 441h22v-130h-11c-179 0 -280 -72 -296 -221c42 43 105 76 185 76zM389 -251c84 0 137 62 137 143c0 82 -48 138 -138 138c-67 0 -121 -33 -144 -75v-35
c0 -113 61 -171 145 -171z" />
    <glyph glyph-name="uni2087" unicode="&#x2087;" 
d="M678 333l-349 -700h-167l349 661h-452v128h619v-89z" />
    <glyph glyph-name="uni2088" unicode="&#x2088;" 
d="M533 39c85 -35 139 -102 139 -190c0 -150 -128 -227 -296 -227s-297 77 -297 227c0 88 54 155 139 190c-74 35 -119 96 -119 174c0 142 115 220 276 220c160 0 277 -78 277 -220c0 -78 -45 -139 -119 -174zM375 306c-73 0 -118 -39 -118 -102c0 -62 45 -103 119 -103
c73 0 118 41 118 103c0 61 -46 102 -119 102zM376 -251c82 0 138 42 138 112c0 69 -57 111 -139 111c-83 0 -137 -42 -137 -111c0 -70 54 -112 138 -112z" />
    <glyph glyph-name="uni2089" unicode="&#x2089;" 
d="M366 433c186 0 296 -120 296 -322v-52c0 -278 -137 -433 -438 -433h-15v126h14c180 0 265 65 279 201c-41 -39 -100 -65 -170 -65c-169 0 -259 109 -259 264c0 153 113 281 293 281zM368 9c66 0 114 33 136 71v60c0 111 -59 165 -138 165c-84 0 -135 -70 -135 -153
c0 -80 46 -143 137 -143z" />
    <glyph glyph-name="uni2070" unicode="&#x2070;" 
d="M670 992c0 -229 -117 -336 -293 -336c-178 0 -297 107 -297 336v139c0 228 118 336 295 336s295 -108 295 -336v-139zM512 1145c0 133 -49 194 -137 194c-87 0 -136 -61 -136 -194v-166c0 -135 50 -196 138 -196c87 0 135 61 135 196v166z" />
    <glyph glyph-name="uni00B9" unicode="&#xb9;" 
d="M496 667h-158v603l-215 -58v128l355 116h18v-789z" />
    <glyph glyph-name="uni00B2" unicode="&#xb2;" 
d="M684 667h-600v108l289 271c89 83 120 139 120 183c0 65 -44 111 -123 111c-100 0 -145 -58 -145 -134h-159c0 143 112 261 300 261c179 0 286 -91 286 -236c0 -106 -74 -184 -191 -290l-175 -147h398v-127z" />
    <glyph glyph-name="uni00B3" unicode="&#xb3;" 
d="M517 1072c103 -28 150 -92 150 -185c0 -147 -132 -231 -306 -231c-151 0 -298 71 -298 233h158c0 -60 58 -106 145 -106c93 0 142 45 142 112c0 84 -60 116 -158 116h-85v115h85c97 0 145 45 145 110c0 59 -40 104 -132 104c-75 0 -131 -36 -131 -94h-159
c0 136 127 221 287 221c174 0 293 -78 293 -224c0 -73 -48 -138 -136 -171z" />
    <glyph glyph-name="uni2074" unicode="&#x2074;" 
d="M700 966v-129h-107v-170h-159v170h-373l-7 101l377 518h162v-490h107zM213 966h221v287l-15 -25z" />
    <glyph glyph-name="uni2075" unicode="&#x2075;" 
d="M112 1055l50 401h479v-130h-348l-23 -172c25 11 78 29 139 29c170 0 271 -96 271 -258c0 -143 -93 -269 -294 -269c-149 0 -287 82 -295 227h156c8 -69 61 -100 139 -100c96 0 135 62 135 144c0 83 -53 140 -150 140c-73 0 -103 -22 -132 -43z" />
    <glyph glyph-name="uni2076" unicode="&#x2076;" 
d="M431 1191c169 0 253 -116 253 -264c0 -154 -112 -271 -292 -271c-188 0 -306 121 -306 313v56c0 277 154 441 445 441h22v-130h-11c-179 0 -280 -72 -296 -221c42 43 105 76 185 76zM389 783c84 0 137 62 137 143c0 82 -48 138 -138 138c-67 0 -121 -33 -144 -75v-35
c0 -113 61 -171 145 -171z" />
    <glyph glyph-name="uni2077" unicode="&#x2077;" 
d="M678 1367l-349 -700h-167l349 661h-452v128h619v-89z" />
    <glyph glyph-name="uni2078" unicode="&#x2078;" 
d="M533 1073c85 -35 139 -102 139 -190c0 -150 -128 -227 -296 -227s-297 77 -297 227c0 88 54 155 139 190c-74 35 -119 96 -119 174c0 142 115 220 276 220c160 0 277 -78 277 -220c0 -78 -45 -139 -119 -174zM375 1340c-73 0 -118 -39 -118 -102c0 -62 45 -103 119 -103
c73 0 118 41 118 103c0 61 -46 102 -119 102zM376 783c82 0 138 42 138 112c0 69 -57 111 -139 111c-83 0 -137 -42 -137 -111c0 -70 54 -112 138 -112z" />
    <glyph glyph-name="uni2079" unicode="&#x2079;" 
d="M366 1467c186 0 296 -120 296 -322v-52c0 -278 -137 -433 -438 -433h-15v126h14c180 0 265 65 279 201c-41 -39 -100 -65 -170 -65c-169 0 -259 109 -259 264c0 153 113 281 293 281zM368 1043c66 0 114 33 136 71v60c0 111 -59 165 -138 165c-84 0 -135 -70 -135 -153
c0 -80 46 -143 137 -143z" />
    <glyph glyph-name="fraction" unicode="&#x2044;" horiz-adv-x="931" 
d="M165 111l-105 66l711 1138l105 -66z" />
    <glyph glyph-name="zero.smcp" horiz-adv-x="1040" 
d="M940 497c0 -349 -164 -513 -419 -513c-254 0 -422 164 -422 513v174c0 349 166 510 420 510c256 0 421 -161 421 -510v-174zM752 699c0 221 -81 331 -233 331c-150 0 -233 -110 -233 -331v-228c0 -222 85 -337 235 -337c152 0 231 115 231 337v228z" />
    <glyph glyph-name="one.smcp" horiz-adv-x="1040" 
d="M671 0h-188v945l-331 -99v158l492 164h27v-1168z" />
    <glyph glyph-name="two.smcp" horiz-adv-x="1040" 
d="M971 0h-866v130l427 414c152 140 196 218 196 298c0 107 -78 188 -210 188c-175 0 -252 -88 -252 -220h-188c0 204 159 371 440 371c246 0 397 -136 397 -334c0 -147 -112 -268 -254 -416l-327 -281h637v-150z" />
    <glyph glyph-name="three.smcp" horiz-adv-x="1040" 
d="M715 598c160 -47 213 -154 213 -273c0 -218 -184 -341 -427 -341c-226 0 -423 110 -423 330h187c0 -106 94 -180 237 -180c148 0 238 70 238 190c0 137 -103 196 -265 196h-123v147h123c165 0 245 77 245 184c0 110 -71 179 -218 179c-131 0 -224 -65 -224 -168h-187
c0 185 169 319 410 319c242 0 406 -114 406 -330c0 -96 -59 -200 -192 -253z" />
    <glyph glyph-name="four.smcp" horiz-adv-x="1040" 
d="M997 413v-150h-175v-263h-187v263h-584l-3 114l578 788h196v-752h175zM248 413h387v509l-26 -47z" />
    <glyph glyph-name="five.smcp" horiz-adv-x="1040" 
d="M164 580l69 585h680v-161h-523l-37 -290c45 21 119 48 214 48c243 0 399 -148 399 -389c0 -216 -133 -389 -419 -389c-212 0 -400 112 -419 328h180c17 -120 109 -178 239 -178c155 0 232 100 232 244c0 136 -94 235 -255 235c-112 0 -156 -32 -210 -70z" />
    <glyph glyph-name="six.smcp" horiz-adv-x="1039" 
d="M581 771c259 0 375 -184 375 -389c0 -224 -148 -398 -413 -398c-282 0 -429 207 -429 454v84c0 358 151 650 635 650h20v-155h-15c-312 0 -436 -157 -451 -365c61 67 158 119 278 119zM541 135c145 0 231 103 231 242c0 134 -77 244 -230 244c-107 0 -202 -60 -241 -141
v-42c0 -198 112 -303 240 -303z" />
    <glyph glyph-name="seven.smcp" horiz-adv-x="1040" 
d="M961 1061l-535 -1061h-197l534 1014h-697v151h895v-104z" />
    <glyph glyph-name="eight.smcp" horiz-adv-x="1040" 
d="M729 600c130 -52 213 -153 213 -283c0 -217 -186 -333 -422 -333c-239 0 -423 116 -423 333c0 130 82 232 211 284c-112 51 -181 143 -181 258c0 206 164 322 391 322c226 0 394 -116 394 -322c0 -115 -71 -208 -183 -259zM518 1030c-123 0 -203 -68 -203 -178
c0 -109 80 -179 205 -179c123 0 206 70 206 179c0 104 -85 178 -208 178zM520 134c141 0 235 72 235 193c0 117 -96 196 -237 196c-143 0 -234 -79 -234 -196c0 -121 91 -193 236 -193z" />
    <glyph glyph-name="nine.smcp" horiz-adv-x="1040" 
d="M501 1181c291 0 422 -209 422 -474v-69c0 -347 -134 -645 -631 -645h-19l1 153h18c316 0 429 148 443 347c-57 -63 -148 -111 -271 -111c-258 0 -378 183 -378 391c0 224 148 408 415 408zM497 528c112 0 203 65 240 145v65c0 191 -109 292 -236 292
c-146 0 -230 -116 -230 -253c0 -129 74 -249 226 -249z" />
    <glyph glyph-name="asterisk" unicode="*" horiz-adv-x="882" 
d="M329 984l-301 91l47 149l301 -112l-9 345h154l-10 -350l296 111l47 -152l-306 -91l197 -272l-126 -93l-184 289l-180 -282l-126 91z" />
    <glyph glyph-name="backslash" unicode="\" horiz-adv-x="841" 
d="M41 1456h177l608 -1581h-177z" />
    <glyph glyph-name="periodcentered" unicode="&#xb7;" horiz-adv-x="536" 
d="M262 840c76 0 116 -48 116 -111c0 -61 -40 -109 -116 -109c-75 0 -115 48 -115 109c0 63 40 111 115 111z" />
    <glyph glyph-name="bullet" unicode="&#x2022;" horiz-adv-x="691" 
d="M139 772c0 115 78 198 203 198c128 0 205 -83 205 -198v-40c0 -115 -77 -196 -204 -196c-126 0 -204 81 -204 196v40z" />
    <glyph glyph-name="colon" unicode=":" horiz-adv-x="498" 
d="M249 1093c76 0 116 -49 116 -112c0 -61 -40 -108 -116 -108c-75 0 -115 47 -115 108c0 63 40 112 115 112zM248 209c76 0 116 -49 116 -112c0 -61 -40 -108 -116 -108c-75 0 -115 47 -115 108c0 63 40 112 115 112z" />
    <glyph glyph-name="comma" unicode="," horiz-adv-x="403" 
d="M310 71c0 -122 -64 -271 -176 -361l-106 72c63 88 99 177 99 286v151h183v-148z" />
    <glyph glyph-name="ellipsis" unicode="&#x2026;" horiz-adv-x="1371" 
d="M262 209c76 0 116 -49 116 -112c0 -61 -40 -108 -116 -108c-75 0 -115 47 -115 108c0 63 40 112 115 112zM700 209c76 0 116 -49 116 -112c0 -61 -40 -108 -116 -108c-75 0 -115 47 -115 108c0 63 40 112 115 112zM1116 209c76 0 116 -49 116 -112
c0 -61 -40 -108 -116 -108c-75 0 -115 47 -115 108c0 63 40 112 115 112z" />
    <glyph glyph-name="exclam" unicode="!" horiz-adv-x="529" 
d="M349 411h-168l-14 1045h196zM270 199c72 0 111 -47 111 -106s-39 -104 -111 -104s-109 45 -109 104s37 106 109 106z" />
    <glyph glyph-name="exclamdown" unicode="&#xa1;" horiz-adv-x="501" 
d="M250 891c-72 0 -111 47 -111 106c0 58 39 104 111 104s109 -46 109 -104c0 -59 -37 -106 -109 -106zM171 684h168l14 -1045h-196z" />
    <glyph glyph-name="numbersign" unicode="#" horiz-adv-x="1263" 
d="M1236 902h-229l-70 -355h224v-137h-251l-80 -410h-144l80 410h-263l-80 -410h-144l80 410h-239v137h266l69 355h-259v138h286l81 416h144l-81 -416h263l81 416h145l-81 -416h202v-138zM793 547l69 355h-263l-69 -355h263z" />
    <glyph glyph-name="period" unicode="." horiz-adv-x="541" 
d="M259 209c76 0 116 -49 116 -112c0 -61 -40 -108 -116 -108c-75 0 -115 47 -115 108c0 63 40 112 115 112z" />
    <glyph glyph-name="question" unicode="?" horiz-adv-x="969" 
d="M357 410c2 192 45 256 172 386c91 94 172 158 172 295c0 139 -75 225 -214 225c-116 0 -225 -62 -225 -201h-187c3 226 181 361 412 361c255 0 400 -146 400 -380c0 -179 -123 -313 -250 -433c-73 -67 -93 -154 -93 -253h-187zM459 199c72 0 110 -47 110 -106
s-38 -104 -110 -104s-110 45 -110 104s38 106 110 106z" />
    <glyph glyph-name="questiondown" unicode="&#xbf;" horiz-adv-x="970" 
d="M488 892c-72 0 -111 47 -111 106c0 58 39 104 111 104s109 -46 109 -104c0 -59 -37 -106 -109 -106zM590 680c-2 -191 -47 -247 -170 -381c-85 -91 -165 -161 -165 -300c0 -145 79 -224 223 -224c116 0 224 66 225 205h187c-3 -228 -180 -366 -412 -366
c-260 0 -410 140 -410 380c0 182 125 320 245 437c71 69 90 151 90 249h187z" />
    <glyph glyph-name="quotedbl" unicode="&#x22;" horiz-adv-x="658" 
d="M278 1400l-30 -356h-112l1 347v145h141v-136zM549 1400l-30 -356h-112l1 354v138h141v-136z" />
    <glyph glyph-name="quotesingle" unicode="'" horiz-adv-x="358" 
d="M255 1425l-22 -367h-130l1 351v127h151v-111z" />
    <glyph glyph-name="semicolon" unicode=";" horiz-adv-x="434" 
d="M225 1093c76 0 116 -49 116 -112c0 -61 -40 -108 -116 -108c-75 0 -115 47 -115 108c0 63 40 112 115 112zM323 71c0 -122 -64 -271 -176 -361l-106 72c63 88 99 177 99 286v151h183v-148z" />
    <glyph glyph-name="slash" unicode="/" horiz-adv-x="846" 
d="M178 -125h-160l608 1581h159z" />
    <glyph glyph-name="underscore" unicode="_" horiz-adv-x="925" 
d="M921 -150h-917v150h917v-150z" />
    <glyph glyph-name="braceleft" unicode="{" horiz-adv-x="694" 
d="M463 98c0 -164 50 -301 208 -351l-39 -114c-272 77 -356 255 -356 465v207c0 144 -62 238 -212 238v144c150 0 212 93 212 238v207c0 210 84 388 356 465l39 -113c-158 -51 -208 -188 -208 -352v-207c0 -134 -51 -248 -169 -310c118 -62 169 -176 169 -310v-207z" />
    <glyph glyph-name="braceright" unicode="}" horiz-adv-x="694" 
d="M415 925c0 -145 63 -238 212 -238v-144c-149 0 -212 -94 -212 -238v-207c0 -210 -83 -388 -356 -465l-39 114c158 50 208 187 208 351v207c0 139 56 253 184 310c-128 57 -184 171 -184 310v207c0 164 -50 301 -208 352l39 113c273 -77 356 -255 356 -465v-207z" />
    <glyph glyph-name="bracketleft" unicode="[" horiz-adv-x="545" 
d="M524 1514h-191v-1676h191v-150h-378v1976h378v-150z" />
    <glyph glyph-name="bracketright" unicode="]" horiz-adv-x="545" 
d="M10 1664h379v-1976h-379v150h192v1676h-192v150z" />
    <glyph glyph-name="parenleft" unicode="(" horiz-adv-x="702" 
d="M133 591c0 581 302 947 491 1052l39 -121c-156 -119 -343 -423 -343 -928v-15c0 -505 187 -809 343 -938l-39 -111c-189 106 -491 469 -491 1051v10z" />
    <glyph glyph-name="parenright" unicode=")" horiz-adv-x="714" 
d="M568 581c0 -582 -301 -945 -490 -1051l-39 111c156 119 343 433 343 938v15c0 505 -201 820 -343 937l39 112c189 -105 490 -471 490 -1052v-10z" />
    <glyph glyph-name="emdash" unicode="&#x2014;" horiz-adv-x="1599" 
d="M1480 652h-1336v150h1336v-150z" />
    <glyph glyph-name="endash" unicode="&#x2013;" horiz-adv-x="1344" 
d="M1164 652h-1002v150h1002v-150z" />
    <glyph glyph-name="hyphen" unicode="-" horiz-adv-x="565" 
d="M526 544h-489v151h489v-151z" />
    <glyph glyph-name="uni00AD" unicode="&#xad;" horiz-adv-x="600" 
d="M526 544h-489v151h489v-151z" />
    <glyph glyph-name="guillemotleft" unicode="&#xab;" horiz-adv-x="961" 
d="M538 946l-258 -397l258 -398h-143l-295 388v19l295 388h143zM870 946l-258 -397l258 -398h-143l-295 388v19l295 388h143z" />
    <glyph glyph-name="guillemotright" unicode="&#xbb;" horiz-adv-x="961" 
d="M540 541l-295 -388h-142l257 398l-257 398h142l295 -389v-19zM595 949l295 -389v-19l-295 -388h-142l257 398l-257 398h142z" />
    <glyph glyph-name="guilsinglleft" unicode="&#x2039;" horiz-adv-x="615" 
d="M546 949l-258 -397l258 -398h-143l-295 388v19l295 388h143z" />
    <glyph glyph-name="guilsinglright" unicode="&#x203a;" horiz-adv-x="615" 
d="M232 949l295 -389v-19l-295 -388h-142l257 398l-257 398h142z" />
    <glyph glyph-name="quotedblbase" unicode="&#x201e;" horiz-adv-x="709" 
d="M317 79c0 -127 -64 -284 -175 -379l-106 72c63 93 95 189 95 304v170h186v-167zM615 79c0 -127 -64 -284 -175 -379l-106 72c62 93 94 189 94 304v170h187v-167z" />
    <glyph glyph-name="quotedblleft" unicode="&#x201c;" horiz-adv-x="727" 
d="M105 1195c0 121 64 270 176 361l106 -72c-63 -88 -97 -178 -97 -286v-124h-185v121zM421 1195c0 121 64 270 176 361l106 -72c-63 -88 -97 -178 -97 -286v-124h-185v121z" />
    <glyph glyph-name="quotedblright" unicode="&#x201d;" horiz-adv-x="734" 
d="M341 1408c0 -121 -64 -270 -175 -361l-106 72c63 88 96 178 96 287v130h185v-128zM649 1408c0 -121 -64 -270 -175 -361l-106 72c63 88 96 178 96 287v130h185v-128z" />
    <glyph glyph-name="quoteleft" unicode="&#x2018;" horiz-adv-x="411" 
d="M96 1195c0 121 64 270 176 361l106 -72c-63 -88 -97 -178 -97 -286v-124h-185v121z" />
    <glyph glyph-name="quoteright" unicode="&#x2019;" horiz-adv-x="411" 
d="M329 1408c0 -121 -64 -270 -175 -361l-106 72c63 88 96 178 96 287v130h185v-128z" />
    <glyph glyph-name="quotesinglbase" unicode="&#x201a;" horiz-adv-x="409" 
d="M317 79c0 -121 -64 -270 -175 -361l-106 72c63 88 95 179 95 286v107h186v-104z" />
    <glyph glyph-name="uni05F3" unicode="&#x5f3;" horiz-adv-x="343" 
d="M127 899l-112 53c61 82 94 176 94 278v195h169l-1 -181c0 -135 -62 -264 -150 -345z" />
    <glyph glyph-name="uni05F4" unicode="&#x5f4;" horiz-adv-x="672" 
d="M140 899l-113 53c62 82 94 176 94 278v195h169v-181c0 -135 -63 -264 -150 -345zM442 899l-113 53c62 82 94 176 94 278v195h169l-1 -181c0 -135 -62 -264 -149 -345z" />
    <glyph glyph-name="uni05BE" unicode="&#x5be;" horiz-adv-x="517" 
d="M457 1029h-397v149h397v-149z" />
    <glyph glyph-name="space" unicode=" " horiz-adv-x="508" 
 />
    <glyph glyph-name="uni200F" unicode="&#x200f;" horiz-adv-x="0" 
d="M-268 1275v-1475h-117v1358h-268l190 -164h-165l-248 222l238 240h166l-192 -181h396z" />
    <glyph glyph-name="uni200E" unicode="&#x200e;" horiz-adv-x="0" 
d="M-445 1456l238 -240l-248 -222h-165l190 164h-268v-1358h-117v1475h396l-192 181h166z" />
    <glyph glyph-name="uni200D" unicode="&#x200d;" horiz-adv-x="0" 
d="M-316 1413l-182 -186l182 -185l-87 -87l-127 130v-1285h-116v1276l-118 -121l-88 87l182 185l-182 186l87 87l181 -185l182 185z" />
    <glyph glyph-name="uni200C" unicode="&#x200c;" horiz-adv-x="0" 
d="M-644 1275h117v-1475h-117v1475z" />
    <glyph glyph-name=".null" horiz-adv-x="0" 
 />
    <glyph glyph-name="Euro" unicode="&#x20ac;" horiz-adv-x="1151" 
d="M815 135c77 0 151 12 218 34l20 -159c-74 -19 -157 -30 -240 -30c-313 0 -533 188 -540 562h-177v123h177v138h-177v124h178c12 365 228 549 538 549c84 0 159 -12 241 -31l-20 -160c-66 21 -142 35 -219 35c-205 0 -336 -126 -345 -393h382v-124h-383v-138h383v-123
h-383c5 -275 140 -407 347 -407z" />
    <glyph glyph-name="cent" unicode="&#xa2;" horiz-adv-x="1121" 
d="M586 130c132 0 244 89 255 212h177c-10 -169 -157 -319 -348 -354v-233h-187v234c-256 47 -379 273 -379 531v42c0 258 124 484 379 531v225h187v-223c207 -33 339 -188 348 -385h-177c-10 134 -107 242 -255 242c-227 0 -295 -201 -295 -390v-42
c0 -191 66 -390 295 -390z" />
    <glyph glyph-name="currency" unicode="&#xa4;" horiz-adv-x="1460" 
d="M1330 608c0 -133 -37 -254 -102 -354l143 -145l-133 -136l-136 138c-101 -82 -228 -131 -367 -131c-137 0 -264 48 -365 130l-133 -136l-132 135l139 141c-66 101 -104 224 -104 358c0 140 42 268 113 370l-148 151l132 135l146 -149c99 75 220 119 352 119
c133 0 256 -44 355 -120l148 151l133 -136l-151 -154c69 -102 110 -228 110 -367zM735 150c233 0 421 206 421 458s-188 456 -421 456s-422 -204 -422 -456s189 -458 422 -458z" />
    <glyph glyph-name="dollar" unicode="$" horiz-adv-x="1151" 
d="M1042 377c0 -232 -149 -369 -386 -394v-191h-149v190c-205 21 -397 143 -397 447h187c0 -227 147 -290 278 -290c178 0 280 92 280 236c0 119 -74 202 -281 271c-253 77 -408 198 -408 434c0 222 138 367 358 393v219h151v-220c224 -30 354 -191 354 -463h-186
c0 178 -86 308 -246 308c-167 0 -244 -95 -244 -234c0 -129 67 -201 286 -274c257 -83 403 -196 403 -432z" />
    <glyph glyph-name="uni20AA" unicode="&#x20aa;" horiz-adv-x="1722" 
d="M152 0v1179h980v-593c0 -92 -13 -174 -43 -251l-151 -24l-9 8c20 75 30 158 30 258v449h-634v-1026h-173zM562 0v829h173v-676h294c199 -1 340 123 340 327v699h172v-696c2 -297 -195 -483 -519 -483h-460z" />
    <glyph glyph-name="sterling" unicode="&#xa3;" horiz-adv-x="1191" 
d="M396 156h733l-1 -156h-1033v156h77c69 17 92 156 92 245l-8 222h-165v156h160l-9 260c0 276 190 437 445 437c261 0 414 -157 414 -389h-194c0 168 -113 233 -236 233c-131 0 -235 -100 -235 -281l9 -260h318v-156h-313l8 -221c1 -94 -20 -184 -62 -246z" />
    <glyph glyph-name="yen" unicode="&#xa5;" horiz-adv-x="1076" 
d="M1061 1456l-366 -720h260v-124h-323l-1 -2v-164h324v-124h-324v-322h-194v322h-317v124h317v166h-317v124h262l-367 720h218l307 -660l306 660h215z" />
    <glyph glyph-name="plus" unicode="+" horiz-adv-x="1162" 
d="M1076 780v-173h-405v-461h-187v461h-406v173h406v426h187v-426h405z" />
    <glyph glyph-name="minus" unicode="&#x2212;" horiz-adv-x="1171" 
d="M1003 652h-835v150h835v-150z" />
    <glyph glyph-name="multiply" unicode="&#xd7;" horiz-adv-x="1093" 
d="M990 326l-120 -122l-330 337l-331 -337l-120 122l331 337l-329 335l120 122l329 -335l328 335l120 -122l-329 -335z" />
    <glyph glyph-name="divide" unicode="&#xf7;" horiz-adv-x="1170" 
d="M576 1210c75 0 116 -49 116 -112c0 -61 -41 -109 -116 -109c-76 0 -115 48 -115 109c0 63 39 112 115 112zM1069 601h-998v183h998v-183zM576 393c75 0 116 -48 116 -111c0 -61 -41 -109 -116 -109c-76 0 -115 48 -115 109c0 63 39 111 115 111z" />
    <glyph glyph-name="equal" unicode="=" horiz-adv-x="1124" 
d="M986 815h-834v159h834v-159zM986 400h-834v159h834v-159z" />
    <glyph glyph-name="greater" unicode="&#x3e;" horiz-adv-x="1071" 
d="M135 1099l854 -378v-144l-854 -379v190l661 264l-661 258v189z" />
    <glyph glyph-name="less" unicode="&#x3c;" horiz-adv-x="1041" 
d="M890 1098v-194l-624 -259l624 -254v-195l-818 379v145z" />
    <glyph glyph-name="plusminus" unicode="&#xb1;" horiz-adv-x="1095" 
d="M651 854h362v-150h-362v-415h-169v415h-385v150h385v413h169v-413zM135 1v150h835v-150h-835z" />
    <glyph glyph-name="asciitilde" unicode="~" horiz-adv-x="1393" 
d="M1263 777c0 -204 -134 -374 -324 -374c-117 0 -195 48 -298 139c-68 63 -121 99 -187 99c-102 0 -161 -77 -161 -203l-162 -1c0 208 133 365 323 365c117 0 200 -51 299 -139c71 -66 121 -99 186 -99c102 0 171 88 171 213h153z" />
    <glyph glyph-name="logicalnot" unicode="&#xac;" horiz-adv-x="1135" 
d="M127 800h832v-424h-187v264h-645v160z" />
    <glyph glyph-name="percent" unicode="%" horiz-adv-x="1500" 
d="M105 1176c0 165 113 301 298 301c188 0 300 -136 300 -301v-77c0 -163 -112 -299 -298 -299c-187 0 -300 136 -300 299v77zM245 1099c0 -92 51 -179 160 -179c107 0 158 86 158 179v77c0 94 -52 181 -160 181c-106 0 -158 -87 -158 -181v-77zM447 111l-105 66l711 1138
l105 -66zM814 357c0 164 113 300 298 300c187 0 299 -136 299 -300v-78c0 -164 -112 -300 -297 -300c-187 0 -300 136 -300 300v78zM953 279c0 -93 52 -180 161 -180c107 0 158 86 158 180v78c0 94 -52 180 -160 180c-107 0 -159 -86 -159 -180v-78z" />
    <glyph glyph-name="at" unicode="@" horiz-adv-x="1838" 
d="M968 1431c513 0 790 -360 767 -928c-10 -246 -119 -524 -409 -524c-125 0 -207 63 -240 169c-71 -111 -169 -169 -267 -169c-197 0 -293 176 -269 439c31 351 227 572 432 572c145 0 214 -49 289 -107l-51 -554c-17 -195 62 -231 127 -231c161 0 249 180 258 405
c23 498 -177 797 -641 797c-419 0 -682 -333 -703 -822c-23 -499 210 -807 635 -807c118 0 248 30 331 78l38 -113c-93 -60 -248 -89 -373 -89c-507 0 -800 357 -777 931c24 548 351 953 853 953zM865 122c69 0 153 56 206 199c0 2 1 5 1 8l46 504c-33 17 -73 29 -120 29
c-145 0 -262 -151 -288 -444c-18 -189 38 -296 155 -296z" />
    <glyph glyph-name="ampersand" unicode="&#x26;" horiz-adv-x="1274" 
d="M1268 0h-224l-96 115c-100 -90 -243 -135 -375 -135c-291 0 -472 171 -472 411c0 174 117 280 283 399c-99 119 -164 218 -164 333c0 227 145 353 365 353c214 0 347 -142 347 -307c0 -140 -81 -230 -198 -317l-109 -81l323 -387c42 81 67 179 67 288h168
c0 -165 -39 -308 -123 -423zM584 1326c-117 0 -177 -91 -177 -197c0 -73 47 -151 118 -239l103 73c84 57 131 106 131 206c0 79 -63 157 -175 157zM573 130c96 0 191 41 269 113l-355 426l-42 -31c-144 -107 -157 -203 -157 -247c0 -142 92 -261 285 -261z" />
    <glyph glyph-name="paragraph" unicode="&#xb6;" horiz-adv-x="1002" 
d="M646 0v520h-87c-318 0 -492 198 -492 468c0 268 174 468 492 468h275v-1456h-188z" />
    <glyph glyph-name="section" unicode="&#xa7;" horiz-adv-x="1257" 
d="M959 158c93 -65 142 -152 142 -287c0 -232 -193 -366 -488 -366c-257 0 -523 107 -523 431l187 2c0 -213 179 -283 336 -283c192 0 301 93 301 214c0 124 -81 177 -351 258c-292 78 -467 175 -467 424c0 124 67 220 183 274c-89 66 -138 154 -138 286
c0 221 192 366 490 366c305 0 492 -153 492 -431h-187c0 154 -107 280 -305 280c-209 0 -303 -97 -303 -213c0 -134 68 -181 349 -259c298 -82 469 -174 469 -423c0 -126 -69 -220 -187 -273zM283 553c0 -135 69 -185 354 -264c59 -16 113 -33 161 -51
c104 27 161 99 161 190c0 125 -84 182 -356 264c-60 16 -115 33 -165 52c-106 -25 -155 -98 -155 -191z" />
    <glyph glyph-name="copyright" unicode="&#xa9;" horiz-adv-x="1609" 
d="M801 1476c391 0 709 -324 709 -747s-318 -750 -709 -750c-392 0 -710 327 -710 750s318 747 710 747zM801 98c327 0 593 275 593 631s-266 628 -593 628c-328 0 -594 -272 -594 -628s266 -631 594 -631zM1119 598c0 -210 -127 -314 -331 -314c-213 0 -347 157 -347 387
v115c0 229 134 387 347 387c204 0 332 -104 332 -313h-146c0 132 -65 186 -186 186c-132 0 -202 -108 -202 -259v-116c0 -153 70 -259 202 -259c121 0 185 51 185 186h146z" />
    <glyph glyph-name="registered" unicode="&#xae;" horiz-adv-x="1609" 
d="M800 1476c392 0 710 -324 710 -747s-318 -750 -710 -750s-710 327 -710 750s318 747 710 747zM800 98c327 0 593 275 593 631s-266 628 -593 628c-328 0 -594 -272 -594 -628s266 -631 594 -631zM1105 514v-54c0 -50 5 -97 17 -127v-16h-146c-13 34 -13 115 -13 144v52
c0 97 -40 142 -147 142h-163v-338h-142v848h277c198 0 322 -84 322 -255c0 -83 -45 -146 -129 -188c93 -37 124 -114 124 -208zM809 782c84 2 160 43 160 122c0 100 -46 135 -181 135h-135v-257h156z" />
    <glyph glyph-name="degree" unicode="&#xb0;" horiz-adv-x="765" 
d="M386 1477c138 0 251 -118 251 -260c0 -143 -113 -256 -251 -256c-139 0 -255 113 -255 256c0 142 116 260 255 260zM386 1088c72 0 126 55 126 129c0 76 -54 133 -126 133s-130 -57 -130 -133c0 -74 58 -129 130 -129z" />
    <glyph glyph-name="bar" unicode="|" horiz-adv-x="501" 
d="M326 -270h-150v1726h150v-1726z" />
    <glyph glyph-name="brokenbar" unicode="&#xa6;" horiz-adv-x="493" 
d="M334 698h-187v758h187v-758zM147 -270v791h187v-791h-187z" />
    <glyph glyph-name="asciicircum" unicode="^" horiz-adv-x="856" 
d="M789 729h-173l-189 484l-190 -484h-173l299 727h128z" />
    <glyph glyph-name="ampersand.smcp" horiz-adv-x="1238" 
d="M1170 0h-212l-93 98c-97 -72 -223 -114 -377 -114c-237 0 -385 128 -385 294c0 136 70 214 185 298l72 51c-97 101 -168 174 -168 292c0 156 127 262 317 262c191 0 313 -122 313 -261c0 -101 -63 -188 -143 -246l-85 -61l267 -284c44 74 67 166 67 270h170
c0 -146 -45 -280 -127 -387zM374 906c0 -65 53 -118 117 -185l64 46c56 40 84 90 84 139c0 69 -50 122 -137 122c-84 0 -128 -63 -128 -122zM505 137c99 0 184 27 251 75l-293 307l-84 -60c-78 -56 -91 -112 -91 -156c0 -97 71 -166 217 -166z" />
    <glyph glyph-name="dollar.smcp" horiz-adv-x="1056" 
d="M990 300c0 -175 -142 -291 -364 -312v-225h-150v225c-211 22 -409 140 -409 361h188c0 -155 133 -216 293 -216c166 0 254 67 254 165c0 99 -55 155 -271 207c-258 63 -424 163 -424 356c0 171 145 296 369 317v217h150v-219c229 -29 361 -176 361 -350h-187
c0 119 -84 205 -260 205c-167 0 -246 -73 -246 -169c0 -91 80 -145 293 -198c259 -66 403 -173 403 -364z" />
    <glyph glyph-name="Euro.smcp" horiz-adv-x="997" 
d="M698 134c78 0 133 10 202 29l27 -148c-73 -20 -146 -31 -229 -31c-276 0 -449 146 -476 422h-155v121h151v109h-151v121h155c28 275 199 424 474 424c84 0 150 -12 231 -31l-21 -147c-68 21 -131 28 -210 28c-174 0 -267 -94 -288 -274h409v-121h-413v-109h413v-121h-409
c21 -180 116 -272 290 -272z" />
    <glyph glyph-name="sterling.smcp" horiz-adv-x="1077" 
d="M349 151h659l-1 -151h-893v151h10c76 22 93 199 89 315l-1 35h-163v121h159l-4 122c-9 276 144 437 378 437c258 0 387 -156 387 -387h-187c0 171 -92 233 -200 233c-122 0 -197 -98 -191 -283l4 -122h403v-121h-400l1 -35c4 -119 -10 -234 -50 -315z" />
    <glyph glyph-name="yen.smcp" horiz-adv-x="929" 
d="M915 1165l-300 -628h212v-120h-270l-3 -6v-69h273v-120h-273v-222h-186v222h-274v120h274v75h-274v120h220l-300 628h200l251 -574l252 574h198z" />
    <glyph glyph-name="uniFB29" unicode="&#xfb29;" horiz-adv-x="1128" 
d="M473 1206h168v-449h420v-156h-998v156h410v449z" />
    <glyph glyph-name="gravecomb" unicode="&#x300;" horiz-adv-x="0" 
d="M-440 1243h-160l-259 293h226z" />
    <glyph glyph-name="acutecomb" unicode="&#x301;" horiz-adv-x="0" 
d="M-465 1536h225l-269 -293h-150z" />
    <glyph glyph-name="tildecomb" unicode="&#x303;" horiz-adv-x="0" 
d="M-178 1500c0 -146 -95 -241 -216 -241c-136 0 -157 95 -268 95c-56 0 -99 -49 -99 -112l-125 7c0 145 93 246 215 246c113 0 162 -96 268 -96c56 0 100 49 100 113z" />
    <glyph glyph-name="acute" unicode="&#xb4;" horiz-adv-x="644" 
d="M317 1536h225l-269 -293h-150z" />
    <glyph glyph-name="cedilla" unicode="&#xb8;" horiz-adv-x="508" 
d="M286 0l-12 -53c77 -13 153 -57 153 -173c0 -125 -105 -209 -304 -209l-7 106c92 0 166 29 166 99c0 68 -49 86 -161 95l31 135h134z" />
    <glyph glyph-name="circumflex" unicode="&#x2c6;" horiz-adv-x="966" 
d="M776 1263v-10h-154l-150 170l-149 -170h-153v11l246 272h112z" />
    <glyph glyph-name="dieresis" unicode="&#xa8;" horiz-adv-x="856" 
d="M210 1478c72 0 110 -47 110 -106c0 -58 -38 -104 -110 -104s-110 46 -110 104c0 59 38 106 110 106zM640 1476c72 0 111 -47 111 -106c0 -58 -39 -104 -111 -104s-109 46 -109 104c0 59 37 106 109 106z" />
    <glyph glyph-name="grave" unicode="`" horiz-adv-x="634" 
d="M475 1243h-160l-259 293h225z" />
    <glyph glyph-name="macron" unicode="&#xaf;" horiz-adv-x="940" 
d="M815 1304h-672v141h672v-141z" />
    <glyph glyph-name="ring" unicode="&#x2da;" horiz-adv-x="687" 
d="M337 1616c121 0 215 -92 215 -208s-94 -203 -215 -203c-123 0 -216 87 -216 203s93 208 216 208zM337 1293c68 0 116 55 116 115c0 63 -48 119 -116 119s-116 -56 -116 -119c0 -59 48 -115 116 -115z" />
    <glyph glyph-name="tilde" unicode="&#x2dc;" horiz-adv-x="968" 
d="M832 1500c0 -146 -95 -241 -216 -241c-136 0 -157 95 -268 95c-56 0 -99 -49 -99 -112l-125 7c0 145 93 246 215 246c113 0 162 -96 268 -96c56 0 100 49 100 113z" />
    <glyph glyph-name="uni05B0" unicode="&#x5b0;" horiz-adv-x="0" 
d="M597 -316c-44 0 -78 32 -78 73c0 42 34 73 78 73c45 0 78 -31 78 -73c0 -41 -33 -73 -78 -73zM597 -547c-44 0 -78 32 -78 73c0 42 34 73 78 73c45 0 78 -31 78 -73c0 -41 -33 -73 -78 -73z" />
    <glyph glyph-name="uni05B1" unicode="&#x5b1;" horiz-adv-x="0" 
d="M369 -316c-44 0 -78 32 -78 73c0 42 34 73 78 73c45 0 78 -31 78 -73c0 -41 -33 -73 -78 -73zM597 -316c-44 0 -78 32 -78 73c0 42 34 73 78 73c45 0 78 -31 78 -73c0 -41 -33 -73 -78 -73zM828 -316c-45 0 -79 32 -79 73c0 42 34 73 79 73c44 0 77 -31 77 -73
c0 -41 -33 -73 -77 -73zM484 -512c-45 0 -79 30 -79 72s34 74 79 74c44 0 78 -32 78 -74s-34 -72 -78 -72zM828 -547c-45 0 -79 32 -79 73c0 42 34 73 79 73c44 0 77 -31 77 -73c0 -41 -33 -73 -77 -73z" />
    <glyph glyph-name="uni05B2" unicode="&#x5b2;" horiz-adv-x="0" 
d="M818 -316c-45 0 -79 32 -79 73c0 42 34 73 79 73c44 0 78 -31 78 -73c0 -41 -34 -73 -78 -73zM301 -289v94h367v-94h-367zM818 -547c-45 0 -79 32 -79 73c0 42 34 73 79 73c44 0 78 -31 78 -73c0 -41 -34 -73 -78 -73z" />
    <glyph glyph-name="uni05B3" unicode="&#x5b3;" horiz-adv-x="0" 
d="M818 -316c-45 0 -79 32 -79 73c0 42 34 73 79 73c44 0 78 -31 78 -73c0 -41 -34 -73 -78 -73zM488 -530c-44 0 -78 34 -78 73c0 49 39 54 46 168h-156v94h371v-94h-152c7 -114 46 -119 46 -168c0 -42 -33 -73 -77 -73zM818 -547c-45 0 -79 32 -79 73c0 42 34 73 79 73
c44 0 78 -31 78 -73c0 -41 -34 -73 -78 -73z" />
    <glyph glyph-name="uni05B4" unicode="&#x5b4;" horiz-adv-x="0" 
d="M597 -316c-44 0 -78 35 -78 73c0 42 34 73 78 73c45 0 78 -31 78 -73c0 -41 -33 -73 -78 -73z" />
    <glyph glyph-name="uni05B5" unicode="&#x5b5;" horiz-adv-x="0" 
d="M484 -316c-45 0 -79 35 -79 73c0 42 34 73 79 73c44 0 78 -31 78 -73c0 -41 -34 -73 -78 -73zM711 -316c-44 0 -79 35 -79 73c0 42 35 73 79 73c45 0 78 -31 78 -73c0 -41 -33 -73 -78 -73z" />
    <glyph glyph-name="uni05B6" unicode="&#x5b6;" horiz-adv-x="0" 
d="M484 -316c-45 0 -79 35 -79 73c0 42 34 73 79 73c44 0 78 -31 78 -73c0 -41 -34 -73 -78 -73zM711 -316c-44 0 -79 35 -79 73c0 42 35 73 79 73c45 0 78 -31 78 -73c0 -41 -33 -73 -78 -73zM597 -512c-44 0 -78 30 -78 72s34 74 78 74c45 0 78 -32 78 -74
s-33 -72 -78 -72z" />
    <glyph glyph-name="uni05B7" unicode="&#x5b7;" horiz-adv-x="0" 
d="M395 -289v94h404v-94h-404z" />
    <glyph glyph-name="uni05B8" unicode="&#x5b8;" horiz-adv-x="0" 
d="M600 -535c-45 0 -79 35 -79 73c0 50 40 54 47 173h-159v94h377v-94h-155c8 -119 47 -123 47 -173c0 -41 -34 -73 -78 -73z" />
    <glyph glyph-name="uni05B9" unicode="&#x5b9;" horiz-adv-x="0" 
d="M261 1331c-45 0 -79 34 -79 72c0 42 34 73 79 73s79 -31 79 -73s-34 -72 -79 -72z" />
    <glyph glyph-name="uni05BA" unicode="&#x5ba;" horiz-adv-x="0" 
d="M261 1331c-45 0 -79 34 -79 72c0 42 34 73 79 73s79 -31 79 -73s-34 -72 -79 -72z" />
    <glyph glyph-name="uni05BB" unicode="&#x5bb;" horiz-adv-x="0" 
d="M598 -316c-44 0 -78 35 -78 73c0 42 34 73 78 73c45 0 78 -31 78 -73c0 -41 -33 -73 -78 -73zM724 -501c-45 0 -79 34 -79 72c0 42 34 74 79 74c44 0 78 -33 78 -74s-34 -72 -78 -72zM849 -687c-44 0 -78 35 -78 73c0 42 34 74 78 74c45 0 78 -32 78 -74
c0 -41 -33 -73 -78 -73z" />
    <glyph glyph-name="uni05BC" unicode="&#x5bc;" horiz-adv-x="0" 
d="M316 525c-44 0 -78 35 -78 74c0 41 34 73 78 73c45 0 79 -32 79 -73c0 -42 -34 -74 -79 -74z" />
    <glyph glyph-name="uni05BF" unicode="&#x5bf;" horiz-adv-x="0" 
d="M240 1357v107h487v-107h-487z" />
    <glyph glyph-name="uni05C1" unicode="&#x5c1;" horiz-adv-x="0" 
d="M1328 1331c-45 0 -79 34 -79 72c0 42 34 73 79 73c44 0 78 -31 78 -73s-34 -72 -78 -72z" />
    <glyph glyph-name="uni05C2" unicode="&#x5c2;" horiz-adv-x="0" 
d="M238 1331c-44 0 -78 34 -78 72c0 42 34 73 78 73c45 0 79 -31 79 -73s-34 -72 -79 -72z" />
    <glyph glyph-name="longst" unicode="&#xfb05;" horiz-adv-x="1263" 
d="M1179 149l1 -149c-29 -9 -77 -20 -143 -20c-137 0 -250 72 -250 289v672h-197v141h197v288c-40 21 -127 37 -187 37c-119 0 -182 -79 -182 -210v-1197h-187v941h-170v141h170v115c0 232 129 360 340 360c118 0 279 -39 403 -100v-375h202v-141h-202v-673
c0 -112 57 -130 119 -130c31 0 70 7 86 11z" />
    <glyph glyph-name="st" unicode="&#xfb06;" horiz-adv-x="1692" 
d="M1620 149l1 -149c-29 -9 -76 -20 -143 -20c-137 0 -250 88 -250 318v643h-188v141h188v86c0 136 -57 231 -200 231c-117 0 -179 -65 -179 -158c0 -160 98 -265 98 -476h-188c0 89 -81 187 -226 187c-153 0 -214 -81 -214 -160c0 -81 45 -123 249 -168
c265 -61 389 -149 389 -324c0 -189 -166 -320 -419 -320c-287 0 -443 174 -443 353h187c9 -153 141 -203 256 -203c151 0 232 68 232 157c0 80 -35 144 -248 188c-240 50 -390 133 -390 311c0 171 158 316 401 316c68 0 129 -10 181 -29c-26 66 -44 128 -44 191
c0 163 145 289 359 289c318 0 386 -218 386 -384v-87h201v-141h-201v-644c0 -126 57 -159 118 -159c31 0 70 7 87 11z" />
    <glyph glyph-name="crossbar" horiz-adv-x="920" 
d="M781 652h-638v150h638v-150z" />
    </font>
</defs>
</svg>
